Welcome Guest ( Log In | Register )

 
Reply to this topicStart new topic
> Meadows Of Melancholy & Departer - Disparition [split] (2022), Melodic Black Metal | Melodic Black Metal
post Jan 14 2022, 19:28:54
Post #1

Правь статус, ####!111
**************
Group: Металариец
Posts: 5,084
Releases: 4672
From: Одесса
On Forums: 13 years 11 months
Thanks: 54199 time(s)
Ukraine


(IMG:http://metalarea.org/images/audiocovers/2022_Jan/acov_tid360512_thumb.jpg)

*Artist: Meadows Of Melancholy & Departer
*Album: Disparition [split]
*Year: 2022
*Genre: Melodic Black Metal | Melodic Black Metal
*Country: United States (IMG:http://metalarea.org/forum/style_images/flags/United%20States.png) | Unknown (IMG:http://metalarea.org/forum/style_images/flags/Unknown.png)
*Format: mp3@CBR320kbps
*Size: 40MB

Tracklist:
Meadows of Melancholy:
1. Vacuity
2. Rescind
Departer:
3. Dismembered Virtue
******************************
Total playing time: 16:34



Technical info
(IMG:http://metalarea.org/images/spectrogram/2022_Jan/4f061fcd2c553bc25e280b2216ad3138.png)
Input File: 02-meadows_of_melancholy_departer-rescind-693e1390.mp3
Channels : 2
Sample Rate : 44100
Precision : 16-bit
Duration : 00:04:24.09 = 11646325 samples = 19806.7 CDDA sectors
File Size : 10.6M
Bit Rate : 320k
Sample Encoding: MPEG audio (layer I, II or III)
Comments :
Title=Rescind
Artist=Meadows Of Melancholy
Album=Disparition (Split)
Tracknumber=2
Year=2022
Genre=Melodic Black Metal



Register


Go to the top of the page
  Insert nick Quick quote
+Quote Post

Reply to this topicStart new topic
1 User(s) are reading this topic (1 Guests and 0 Anonymous Users)
0 Members:

 



- Lo-Fi Version Support form
Copyrights and abuse reports form
Time is now: 25th May 2022 - 20:28:54