Welcome Guest ( Log In | Register )

 
Reply to this topicStart new topic
> Verbum - Exhortation To The Impure (2022), Blackened Doom/Death Metal
post Jan 14 2022, 19:34:37
Post #1

Правь статус, ####!111
**************
Group: Металариец
Posts: 29,285
Releases: 21502
From: Г.Харьков
On Forums: 10 years 2 weeks
Thanks: 443983 time(s)
Unknown


(IMG:https://metalarea.org/images/audiocovers/2022_Jan/acov_tid360513_thumb.jpg)

*Artist: Verbum
*Album: Exhortation To The Impure
*Year: 2022
*Genre: Blackened Doom/Death Metal
*Country: Chile (IMG:https://metalarea.org/forum/style_images/flags/Chile.png)
*Format: mp3@CBR320kbps
*Size: 81MB

Tracklist:
1. Intro 01:56
2. Abrahamic Sedition 06:59
3. Nihil Privativum 07:46
4. Interlude I 00:32
5. Silent Oratorium 08:34
6. Interlude II 00:41
7. Exhortation to the Impure 07:15
8. Outro 02:00
******************************
Total playing time: 35:43



Technical info
(IMG:https://metalarea.org/images/spectrogram/2022_Jan/48764ab1939f6621095b3b84c5c368a6.png)
Input File: 05 - Silent Oratorium.mp3
Channels : 2
Sample Rate : 44100
Precision : 16-bit
Duration : 00:08:34.34 = 22682350 samples = 38575.4 CDDA sectors
File Size : 20.6M
Bit Rate : 320k
Sample Encoding: MPEG audio (layer I, II or III)
Comments :
Title=Silent Oratorium
Artist=Verbum
Album=Exhortation to the Impure
Tracknumber=5
Year=2022
Genre=Metal



Register


Go to the top of the page
  Insert nick Quick quote
+Quote Post

Reply to this topicStart new topic
1 User(s) are reading this topic (1 Guests and 0 Anonymous Users)
0 Members:

 



- Lo-Fi Version Support form
Copyrights and abuse reports form
Time is now: 24th May 2022 - 19:33:15