Welcome Guest ( Log In | Register )

> Releases Upload / Добавление релизов

Добавить релиз тут / Click here to add release
Рекомендованные обменники / Recommended file shares

 
Reply to this topicStart new topic
> Dim Aura - Negged [ep] (2017), Black Metal
post Jan 14 2022, 19:38:48
Post #1

Правь статус, 616
**************
Group: Металариец
Posts: 7,248
Releases: 5661
From: 55°35’N 38°08’E
On Forums: 13 years 6 months
Thanks: 104781 time(s)
Unknown


(IMG:https://metalarea.org/images/audiocovers/2022_Jan/acov_tid360514_thumb.jpg)

*Artist: Dim Aura
*Album: Negged [ep]
*Year: 2017
*Genre: Black Metal
*Country: Israel (IMG:https://metalarea.org/forum/style_images/flags/Israel.png)
*Format: mp3@CBR320kbps
*Size: 46MB

Tracklist:
1. Dreams of Pestilence and Doom 06:45
2. The Cutthroat Axiom 05:56
3. Marian (Sisters Of Mercy cover) (Bonus Track) 07:12
******************************
Total playing time: 19:53




Technical info
(IMG:https://metalarea.org/images/spectrogram/2022_Jan/4091cbb0e7bc38fd4cc6507c03efacdf.png)
Input File: 01 Dreams of Pestilence and Doom.mp3
Channels : 2
Sample Rate : 44100
Precision : 16-bit
Duration : 00:06:46.02 = 17905482 samples = 30451.5 CDDA sectors
File Size : 16.4M
Bit Rate : 323k
Sample Encoding: MPEG audio (layer I, II or III)
Comments :
Title=Dreams of Pestilence and Doom
Artist=Dim Aura
Album=Negged
Tracknumber=1
Year=2017
Genre=Black Metal



Register


Go to the top of the page
  Insert nick Quick quote
+Quote Post

Reply to this topicStart new topic
1 User(s) are reading this topic (1 Guests and 0 Anonymous Users)
0 Members:

 



- Lo-Fi Version Support form
Copyrights and abuse reports form
Time is now: 22nd January 2022 - 19:23:26