Welcome Guest ( Log In | Register )

> Releases Upload / Добавление релизов

Добавить релиз тут / Click here to add release
Рекомендованные обменники / Recommended file shares

 
Reply to this topicStart new topic
> Gürschach - Hypnotic Disasters [ep] (2022), Heavy Metal
post Jan 14 2022, 19:49:40
Post #1

Правь статус, ####!111
**************
Group: Металариец
Posts: 4,576
Releases: 4210
From: Одесса
On Forums: 13 years 7 months
Thanks: 46912 time(s)
Ukraine


(IMG:http://metalarea.org/images/audiocovers/2022_Jan/acov_tid360515_thumb.jpg)

*Artist: Gürschach
*Album: Hypnotic Disasters [ep]
*Year: 2022
*Genre: Heavy Metal
*Country: United States (IMG:http://metalarea.org/forum/style_images/flags/United%20States.png)
*Format: mp3@CBR320kbps
*Size: 59MB

Tracklist:
1. I'm The Grim Reaper 04:19
2. Cyberocracy 04:37
3. The Incarceration Proclamation 04:35
4. St. Anger 05:40
5. Dead Skin Mask 05:27
******************************
Total playing time: 24:38



Extended info
The follow up release to Dark Matter, this EP contains 3 original tracks, and their St. Anger and Dead Skin Mask covers released earlier.

Line - up:

X - Guitars, Vocals
Scotty McRib - Bass, Vocals (ex-Suburban Paranoia)
Leyland Reid - Guitars, Keyboards
Daniel Justo Sanchez - Drums, additional production


Technical info
(IMG:http://metalarea.org/images/spectrogram/2022_Jan/5744661f1351cedb9cc0431b2f56e3da.png)
Input File: 04-guerschach-st_anger-bd080cb3.mp3
Channels : 2
Sample Rate : 44100
Precision : 16-bit
Duration : 00:05:40.74 = 15026502 samples = 25555.3 CDDA sectors
File Size : 13.6M
Bit Rate : 320k
Sample Encoding: MPEG audio (layer I, II or III)
Comments :
Title=St. Anger
Artist=Guerschach
Album=Hypnotic Disasters (EP)
Tracknumber=4
Year=2022
Genre=137



Register


Go to the top of the page
  Insert nick Quick quote
+Quote Post

Reply to this topicStart new topic
1 User(s) are reading this topic (1 Guests and 0 Anonymous Users)
0 Members:

 



- Lo-Fi Version Support form
Copyrights and abuse reports form
Time is now: 22nd January 2022 - 19:36:16