Welcome Guest ( Log In | Register )

> Releases Upload / Добавление релизов

Добавить релиз тут / Click here to add release
Рекомендованные обменники / Recommended file shares

> Vaino - Metsänpeitto (2022), Black Metal
post Jan 14 2022, 19:58:59
Post #1

Правь статус, ####!111
**************
Group: Металариец
Posts: 28,572
Releases: 20918
From: Г.Харьков
On Forums: 9 years 8 months
Thanks: 427471 time(s)
Unknown


(IMG:https://metalarea.org/images/audiocovers/2022_Jan/acov_tid360516_thumb.jpg)

*Artist: Vaino
*Album: Metsänpeitto
*Year: 2022
*Genre: Black Metal
*Country: Finland (IMG:https://metalarea.org/forum/style_images/flags/Finland.png)
*Format: mp3@CBR320kbps
*Size: 73MB

Tracklist:
1. Poismenneen loisto 03:24
2. Noidankehä 03:32
3. Veriteko 03:21
4. Uhritemppeli 07:11
5. Missä käärmeet pesivät 04:48
6. Surutyö 03:44
7. Houreesta hurmioon 06:09
******************************
Total playing time: 32:09




Extended info
V. Pasanen Unknown
See also: Ancient Obscurity, Odious Devotion, Visuri, ex-Alchemaster's Apprentice, ex-Reach the Moon
Nefandous Unknown
See also: ex-Tuhonsiemen


Technical info
(IMG:https://metalarea.org/images/spectrogram/2022_Jan/9a306d6610b02a87396ccfdb88b40336.png)
Input File: 07 - Houreesta Hurmioon.mp3
Channels : 2
Sample Rate : 44100
Precision : 16-bit
Duration : 00:06:09.15 = 16279515 samples = 27686.2 CDDA sectors
File Size : 14.8M
Bit Rate : 320k
Sample Encoding: MPEG audio (layer I, II or III)
Comments :
Title=Houreesta Hurmioon
Artist=Vaino
Album=Metsänpeitto
Tracknumber=7
Year=2022
Genre=Black Metal



Register


Go to the top of the page
  Insert nick Quick quote
+Quote Post
 
Start new topic
Replies (1 - 5)
post Jan 15 2022, 08:04:42
Post #2

Шесть Литров
******
Group: Металариец
Posts: 586
Releases: 0
From: Vilnius
On Forums: 14 years 11 months
Thanks: 193 time(s)
Lithuania


Хороший альбом-любителей жанра не разочарует


Thanks:
(1) andeimon,
Go to the top of the page
  Insert nick Quick quote
+Quote Post
post Jan 15 2022, 08:15:37
Post #3

Trickster
Group Icon
Group: V.I.P
Posts: 4,801
Releases: 318
On Forums: 10 years 11 months
Thanks: 13512 time(s)
Russian Federation


Неплохо
Go to the top of the page
  Insert nick Quick quote
+Quote Post
post Jan 15 2022, 09:39:06
Post #4

I hate you all
**************
Group: Металариец
Posts: 2,827
Releases: 89
From: Ukraine
On Forums: 14 years 8 months
Thanks: 7228 time(s)
Ukraine




Thanks:
(1) rominow,
Go to the top of the page
  Insert nick Quick quote
+Quote Post
post Jan 15 2022, 11:21:55
Post #5

Мегаманьяк
***********
Group: Металариец
Posts: 1,550
Releases: 0
From: Днепр
On Forums: 7 years 6 months
Thanks: 780 time(s)
Unknown


Второсортица со склада.


Thanks:
(1) Storky,
Go to the top of the page
  Insert nick Quick quote
+Quote Post
post Jan 16 2022, 22:48:21
Post #6

буква ю
**************
Group: Металариец
Posts: 5,453
Releases: 0
On Forums: 5 years 11 months
Thanks: 3503 time(s)
Unknown


мелоблэк.
Go to the top of the page
  Insert nick Quick quote
+Quote Post

Reply to this topicStart new topic
2 User(s) are reading this topic (2 Guests and 0 Anonymous Users)
0 Members:

 



- Lo-Fi Version Support form
Copyrights and abuse reports form
Time is now: 22nd January 2022 - 19:14:34