Welcome Guest ( Log In | Register )

> Releases Upload / Добавление релизов

Добавить релиз тут / Click here to add release
Рекомендованные обменники / Recommended file shares

 
Reply to this topicStart new topic
> Tom Gekas - Stillborn (2022), Black/Death Metal
post Jan 14 2022, 20:17:46
Post #1

Правь статус, ####!111
**************
Group: Металариец
Posts: 28,574
Releases: 20918
From: Г.Харьков
On Forums: 9 years 8 months
Thanks: 427475 time(s)
Unknown


(IMG:https://metalarea.org/images/audiocovers/2022_Jan/acov_tid360518_thumb.jpg)

*Artist: Tom Gekas
*Album: Stillborn
*Year: 2022
*Genre: Black/Death Metal
*Country: Germany (IMG:https://metalarea.org/forum/style_images/flags/Germany.png)
*Format: mp3@CBR320kbps
*Size: 116MB

Tracklist:
1. Stillborn 04:04
2. Abortions of God 04:46
3. Evig Mørke III 06:03
4. Hate Crime 04:11
5. Old 04:43
6. Human Disgust 04:51
7. Medication II 10:55
8. Solitude 05:03
9. Jacob's Ladder 05:24
******************************
Total playing time: 50:00




Extended info
Tom Gekas All instruments (2018-present)


Technical info
(IMG:https://metalarea.org/images/spectrogram/2022_Jan/0485c5be868246dbef8f4a995aa527f6.png)
Input File: 08 - Solitude.mp3
Channels : 2
Sample Rate : 44100
Precision : 16-bit
Duration : 00:05:04.08 = 13410016 samples = 22806.1 CDDA sectors
File Size : 12.4M
Bit Rate : 326k
Sample Encoding: MPEG audio (layer I, II or III)
Comments :
Title=Solitude
Artist=Tom Gekas
Album=Stillborn
Tracknumber=8/1



Register


Go to the top of the page
  Insert nick Quick quote
+Quote Post

Reply to this topicStart new topic
2 User(s) are reading this topic (2 Guests and 0 Anonymous Users)
0 Members:

 



- Lo-Fi Version Support form
Copyrights and abuse reports form
Time is now: 22nd January 2022 - 19:41:35