Welcome Guest ( Log In | Register )

> Releases Upload / Добавление релизов

Добавить релиз тут / Click here to add release
Рекомендованные обменники / Recommended file shares

> Pyre & Interment - There Is No Redemption At The Gates Of Wrath [split] (2016), Death Metal | Death Metal (D)(D)
post Jan 14 2022, 20:31:57
Post #1

Правь статус, 616
**************
Group: Металариец
Posts: 7,248
Releases: 5661
From: 55°35’N 38°08’E
On Forums: 13 years 6 months
Thanks: 104781 time(s)
Unknown


(IMG:https://metalarea.org/images/audiocovers/2022_Jan/acov_tid360519_thumb.jpg)

*Artist: Pyre & Interment
*Album: There Is No Redemption At The Gates Of Wrath [split]
*Year: 2016
*Genre: Death Metal | Death Metal
*Country: Russian Federation (IMG:https://metalarea.org/forum/style_images/flags/Russian%20Federation.png) | Sweden (IMG:https://metalarea.org/forum/style_images/flags/Sweden.png)
*Format: mp3@CBR320kbps
*Size: 30MB

Tracklist:
Pyre:
1.At the Repulsive Gates 03:54
Interment:
2.Drenched in Blood 04:30
******************************
Total playing time: 8:24





Technical info
(IMG:https://metalarea.org/images/spectrogram/2022_Jan/7b38fb923c21240397742bdafe530d6b.png)
Input File: 01 Pyre - At The Repulsive Gates.mp3
Channels : 2
Sample Rate : 44100
Precision : 16-bit
Duration : 00:03:54.60 = 10345640 samples = 17594.6 CDDA sectors
File Size : 9.72M
Bit Rate : 332k
Sample Encoding: MPEG audio (layer I, II or III)
Comments :
Title=At The Repulsive Gates
Artist=Pyre
Album=There Is No Redemption at the Gates of Wrath
Tracknumber=1
Year=2016
Genre=Death Metal



Register


Go to the top of the page
  Insert nick Quick quote
+Quote Post
 
Start new topic
Replies (1 - 1)
post Jan 16 2022, 10:31:56
Post #2

Три Литра
***
Group: Завсегдатай
Posts: 217
Releases: 0
On Forums: 12 years 1 month
Thanks: 71 time(s)
Russian Federation


за Pyre слежу, живьем хорошо играют.


Thanks:
(1) Occultas,
Go to the top of the page
  Insert nick Quick quote
+Quote Post

Reply to this topicStart new topic
2 User(s) are reading this topic (2 Guests and 0 Anonymous Users)
0 Members:

 



- Lo-Fi Version Support form
Copyrights and abuse reports form
Time is now: 22nd January 2022 - 17:48:29