Welcome Guest ( Log In | Register )

> И неформату есть предел.

Рэп/хип-хоп/шансон/поп удаляются. Для них есть свои порталы.

 
Reply to this topicStart new topic
> Hexvessel - Earth Over Us [ep] (2015), Psychedelic Neofolk (D7)
post Jan 14 2022, 20:59:43
Post #1

Правь статус, 616
**************
Group: Металариец
Posts: 7,500
Releases: 5886
From: 55°35’N 38°08’E
On Forums: 13 years 11 months
Thanks: 109014 time(s)
Russian Federation


(IMG:https://metalarea.org/images/audiocovers/2022_Jan/acov_tid360520_thumb.jpg)

*Artist: Hexvessel
*Album: Earth Over Us [ep]
*Year: 2015
*Genre: Psychedelic Neofolk
*Country: Finland (IMG:https://metalarea.org/forum/style_images/flags/Finland.png)
*Format: mp3@CBR320kbps
*Size: 27MB

Tracklist:
1.Earth Over Us 03:26
2 Gaia 06:13
******************************
Total playing time: 9:39



Technical info
(IMG:https://metalarea.org/images/spectrogram/2022_Jan/8ce65721115c2ad625e32e73e7fb9a73.png)
Input File: 02 Gaia.mp3
Channels : 2
Sample Rate : 44100
Precision : 16-bit
Duration : 00:06:13.55 = 16473467 samples = 28016.1 CDDA sectors
File Size : 15.0M
Bit Rate : 321k
Sample Encoding: MPEG audio (layer I, II or III)
Comments :
Title=Gaia
Artist=Hexvessel
Album=Earth Over Us
Tracknumber=2
Year=2015
Genre=Folk



Register


Go to the top of the page
  Insert nick Quick quote
+Quote Post

Reply to this topicStart new topic
1 User(s) are reading this topic (1 Guests and 0 Anonymous Users)
0 Members:

 



- Lo-Fi Version Support form
Copyrights and abuse reports form
Time is now: 5th July 2022 - 16:51:04