Welcome Guest ( Log In | Register )

> Releases Upload / Добавление релизов

Добавить релиз тут / Click here to add release
Рекомендованные обменники / Recommended file shares

> Convulsive - The Grotesquery Ruins Of Death (2022), Old School Death Metal
post Jan 14 2022, 21:28:18
Post #1

Восемь Литров
********
Group: Металариец
Posts: 834
Releases: 699
On Forums: 8 months 3 weeks
Thanks: 17766 time(s)
United States


(IMG:https://metalarea.org/images/audiocovers/2022_Jan/acov_tid360521_thumb.jpg)

*Artist: Convulsive
*Album: The Grotesquery Ruins Of Death
*Year: 2022
*Genre: Old School Death Metal
*Country: Brazil (IMG:https://metalarea.org/forum/style_images/flags/Brazil.png)
*Format: mp3@CBR320kbps
*Size: 111MB

Tracklist:
01. Sickened Rituals Of Flesh And Pus
02. Sweet Death
03. Island Of The Last Zombies
04. Naturom Demonto
05. Incubo
06. Zombie Flesh Eaters
07. Nights Of Terror
08. Plague Of Zombies
09. Wurdulak
******************************
Total playing time: 41:39




Extended info


Technical info
(IMG:https://metalarea.org/images/spectrogram/2022_Jan/cc785d2596b7c996cc2ff596b3b5a44e.png)
Input File: 02. Sweet Death.mp3
Channels : 2
Sample Rate : 44100
Precision : 16-bit
Duration : 00:04:25.94 = 11728130 samples = 19945.8 CDDA sectors
File Size : 10.7M
Bit Rate : 322k
Sample Encoding: MPEG audio (layer I, II or III)
Comments :
Title=Sweet Death
Artist=Convulsive
Album=The Grotesquery Ruins Of Death
Tracknumber=02/09
Year=2022



Register


Go to the top of the page
  Insert nick Quick quote
+Quote Post
 
Start new topic
Replies (1 - 2)
post Jan 15 2022, 08:39:59
Post #2

Old School Metal
**************
Group: Металариец
Posts: 4,185
Releases: 0
From: г. Минск
On Forums: 12 years 10 months
Thanks: 10285 time(s)
Belarus


Lossless: FLAC (tracks)
Register


Go to the top of the page
  Insert nick Quick quote
+Quote Post
post Jan 16 2022, 14:17:48
Post #3

Group: Подсевший
Posts: 30
Releases: 0
From: Ottawa
On Forums: 1 year 1 month
Thanks: 1 time(s)
Brazil


Podreria de primeira, de ficar todo cagado.
Go to the top of the page
  Insert nick Quick quote
+Quote Post

Reply to this topicStart new topic
2 User(s) are reading this topic (2 Guests and 0 Anonymous Users)
0 Members:

 



- Lo-Fi Version Support form
Copyrights and abuse reports form
Time is now: 22nd January 2022 - 19:19:38