Welcome Guest ( Log In | Register )

> Releases Upload / Добавление релизов

Добавить релиз тут / Click here to add release
Рекомендованные обменники / Recommended file shares

> Gallowglass Scourge - Silence (2022), Melodic Death Metal
post Jan 14 2022, 21:49:03
Post #1

Правь статус, ####!111
**************
Group: Металариец
Posts: 28,574
Releases: 20918
From: Г.Харьков
On Forums: 9 years 8 months
Thanks: 427475 time(s)
Unknown


(IMG:https://metalarea.org/images/audiocovers/2022_Jan/acov_tid360522_thumb.jpg)

*Artist: Gallowglass Scourge
*Album: Silence
*Year: 2022
*Genre: Melodic Death Metal
*Country: United States (IMG:https://metalarea.org/forum/style_images/flags/United%20States.png)
*Format: mp3@CBR320kbps
*Size: 132MB

Tracklist:
1. Enter Novalunosis 03:36
2. One Soul 06:15
3. Silence 04:39
4. Deep Blue 06:20
5. Bravery 03:20
6. This Burden 07:05
7. Tyranny of Time 04:02
8. Reflection 07:31
9. Defiance 06:11
10. The Gates of Elysium 08:12
******************************
Total playing time: 57:11



Extended info


Technical info
(IMG:https://metalarea.org/images/spectrogram/2022_Jan/93be45745ef0e17393a159b8fad33d56.png)
Input File: 07 - Tyranny of Time.mp3
Channels : 2
Sample Rate : 44100
Precision : 16-bit
Duration : 00:04:02.82 = 10708406 samples = 18211.6 CDDA sectors
File Size : 9.86M
Bit Rate : 325k
Sample Encoding: MPEG audio (layer I, II or III)
Comments :
Title=Tyranny of Time
Artist=Gallowglass Scourge
Album=Silence
Tracknumber=7/1



Register


Go to the top of the page
  Insert nick Quick quote
+Quote Post
 
Start new topic
Replies (1 - 1)
post Jan 15 2022, 07:50:47
Post #2

hearer & reader
**************
Group: Металариец
Posts: 10,068
Releases: 183
From: Moscow
On Forums: 14 years 4 months
Thanks: 11657 time(s)
Russian Federation


https://music.yandex.ru/album/20059917
Проект Matt Hamilton и драммера Tom Croxton. Интересно. Определённо с примесью Doom.
Register


Thanks:
(1) Marek,
Go to the top of the page
  Insert nick Quick quote
+Quote Post

Reply to this topicStart new topic
2 User(s) are reading this topic (2 Guests and 0 Anonymous Users)
0 Members:

 



- Lo-Fi Version Support form
Copyrights and abuse reports form
Time is now: 22nd January 2022 - 19:35:05