Welcome Guest ( Log In | Register )

 
Reply to this topicStart new topic
> Directional - Invasive (2022), Blackened Sludge
post Jan 14 2022, 22:17:15
Post #1

Правь статус, ####!111
**************
Group: Металариец
Posts: 29,934
Releases: 22028
From: Г.Харьков
On Forums: 10 years 3 months
Thanks: 458197 time(s)
Unknown


(IMG:https://metalarea.org/images/audiocovers/2022_Jan/acov_tid360523_thumb.jpg)

*Artist: Directional
*Album: Invasive
*Year: 2022
*Genre: Blackened Sludge
*Country: Sweden (IMG:https://metalarea.org/forum/style_images/flags/Sweden.png)
*Format: mp3@CBR320kbps
*Size: 82MB

Tracklist:
1. Preaching the Ineffable 07:50
2. Deranged Apparition 05:08
3. Trauma Trigger 07:54
4. Cutting a Wound Into Healthy Flesh 06:18
5. A Dead Tree Greets No Spring 08:40
******************************
Total playing time: 35:50



Technical info
(IMG:https://metalarea.org/images/spectrogram/2022_Jan/b08c08bdccdee8f5b3f1a00fa8b7a446.png)
Input File: 05 - A Dead Tree Greets No Spring.mp3
Channels : 2
Sample Rate : 44100
Precision : 16-bit
Duration : 00:08:40.81 = 22967501 samples = 39060.4 CDDA sectors
File Size : 20.9M
Bit Rate : 322k
Sample Encoding: MPEG audio (layer I, II or III)
Comments :
Title=A Dead Tree Greets No Spring
Artist=Directional
Album=Invasive
Tracknumber=5/1



Register


Go to the top of the page
  Insert nick Quick quote
+Quote Post

Reply to this topicStart new topic
1 User(s) are reading this topic (1 Guests and 0 Anonymous Users)
0 Members:

 



- Lo-Fi Version Support form
Copyrights and abuse reports form
Time is now: 11th August 2022 - 07:01:44