Welcome Guest ( Log In | Register )

> Releases Upload / Добавление релизов

Добавить релиз тут / Click here to add release
Рекомендованные обменники / Recommended file shares

> Furis Ignis - Decapitate The Aging World (2022), Black Metal
post Jan 14 2022, 22:47:36
Post #1

Правь статус, ####!111
**************
Group: Металариец
Posts: 28,572
Releases: 20918
From: Г.Харьков
On Forums: 9 years 8 months
Thanks: 427453 time(s)
Unknown


(IMG:https://metalarea.org/images/audiocovers/2022_Jan/acov_tid360524_thumb.jpg)

*Artist: Furis Ignis
*Album: Decapitate The Aging World
*Year: 2022
*Genre: Black Metal
*Country: Germany (IMG:https://metalarea.org/forum/style_images/flags/Germany.png)
*Format: mp3@CBR320kbps
*Size: 89MB

Tracklist:
1. Witness the Nightsky Palpitating to the Beat of Premonition 08:16
2. Hostis Mundi 05:54
3. Guarding the Gate 13:27
4. Zinnen von Eis 02:58
5. C.B.M.G.3 03:04
6. Donner in den Bergen 05:23
******************************
Total playing time: 39:02




Extended info


Technical info
(IMG:https://metalarea.org/images/spectrogram/2022_Jan/b4fa4d78788969316e67f91454557fe0.png)
Input File: 06 - Donner in den Bergen.mp3
Channels : 2
Sample Rate : 44100
Precision : 16-bit
Duration : 00:05:23.28 = 14256604 samples = 24245.9 CDDA sectors
File Size : 12.9M
Bit Rate : 320k
Sample Encoding: MPEG audio (layer I, II or III)
Comments :
Title=Donner in den Bergen
Artist=Furis Ignis
Album=Decapitate the Aging World
Tracknumber=6
Year=2022
Genre=Black Metal



Register


Go to the top of the page
  Insert nick Quick quote
+Quote Post
 
Start new topic
Replies (1 - 5)
post Jan 15 2022, 12:22:02
Post #2

I love Sushi
*******
Group: Металариец
Posts: 721
Releases: 0
From: Vienna
On Forums: 12 years 6 months
Thanks: 187 time(s)
Austria


This stuff is great, kinda reminds me of Katharsis (Ger) in a more melodic approach mixed with some slower parts and nice synths/keyboards sprinkled in
Go to the top of the page
  Insert nick Quick quote
+Quote Post
post Jan 15 2022, 19:28:57
Post #3
BAN
Banned till
Jan 23 2022, 12:25:42



Где Катарсис, и где этот вонючий хеви-метал с балладными слюнями.


Thanks:
Go to the top of the page
  Insert nick Quick quote
+Quote Post
post Jan 15 2022, 19:42:01
Post #4

Мегаманьяк
***********
Group: Металариец
Posts: 1,548
Releases: 0
From: Днепр
On Forums: 7 years 6 months
Thanks: 779 time(s)
Unknown


Это точно, какое время такие и немцы (IMG:style_emoticons/default/normal_Homerdisgust3s.png)
Go to the top of the page
  Insert nick Quick quote
+Quote Post
post Jan 16 2022, 17:10:34
Post #5

Литр
*
Group: Подсевший
Posts: 66
Releases: 1
From: Harare
On Forums: 12 years 3 months
Thanks: 94 time(s)
Zimbabwe


Типичный релиз для Iron Bonehead Productions, это их фишка.


Thanks:
Go to the top of the page
  Insert nick Quick quote
+Quote Post
post Jan 17 2022, 08:38:17
Post #6

0%Tolerance
***********
Group: Металариец
Posts: 1,637
Releases: 0
On Forums: 9 years 4 months
Thanks: 320 time(s)
Unknown


Лоу-фай данжен синт блэкх митал. Преимущественно топорно шаблонный. 4-я и 5-я темы на контрасте заходят хорошо. В целом - можно послушать.


Thanks:
Go to the top of the page
  Insert nick Quick quote
+Quote Post

Reply to this topicStart new topic
1 User(s) are reading this topic (1 Guests and 0 Anonymous Users)
0 Members:

 



- Lo-Fi Version Support form
Copyrights and abuse reports form
Time is now: 22nd January 2022 - 18:31:16