Welcome Guest ( Log In | Register )

> Releases Upload / Добавление релизов

Добавить релиз тут / Click here to add release
Рекомендованные обменники / Recommended file shares

 
Reply to this topicStart new topic
> Gehen - Rêve Noir [ep] (2021), Thrash Metal
post Jan 14 2022, 23:30:11
Post #1

Правь статус, ####!111
**************
Group: Металариец
Posts: 28,572
Releases: 20905
From: Г.Харьков
On Forums: 9 years 8 months
Thanks: 427452 time(s)
Unknown


(IMG:https://metalarea.org/images/audiocovers/2022_Jan/acov_tid360525_thumb.jpg)

*Artist: Gehen
*Album: Rêve Noir [ep]
*Year: 2021
*Genre: Thrash Metal
*Country: France (IMG:https://metalarea.org/forum/style_images/flags/France.png)
*Format: mp3@CBR320kbps
*Size: 38MB

Tracklist:
1. Filianore 03:04
2. Throne 03:28
3. Void 04:24
4. Rêve noir 05:17
******************************
Total playing time: 16:13



Extended info
Arthur Mouly Bass
Lucien Gresset Drums
Melvin Silva Guitars
Clarence Gaspar Vocals, Guitars


Technical info
(IMG:https://metalarea.org/images/spectrogram/2022_Jan/abea1f447961c8cc22263a315f7674cb.png)
Input File: Gehen - Rêve Noir - 03 Void.mp3
Channels : 2
Sample Rate : 44100
Precision : 16-bit
Duration : 00:04:24.64 = 11670404 samples = 19847.6 CDDA sectors
File Size : 10.7M
Bit Rate : 323k
Sample Encoding: MPEG audio (layer I, II or III)
Comments :
Title=Void
Artist=Gehen
Album=Rêve Noir
Tracknumber=3
Year=2021



Register


Go to the top of the page
  Insert nick Quick quote
+Quote Post

Reply to this topicStart new topic
2 User(s) are reading this topic (2 Guests and 0 Anonymous Users)
0 Members:

 



- Lo-Fi Version Support form
Copyrights and abuse reports form
Time is now: 22nd January 2022 - 18:10:56