Welcome Guest ( Log In | Register )

> Nuclear Fire - Peligro De Extinción [ep] (2022), Thrash Metal
post Jan 15 2022, 00:10:33
Post #1

Правь статус, ####!111
**************
Group: Металариец
Posts: 28,572
Releases: 20918
From: Г.Харьков
On Forums: 9 years 8 months
Thanks: 427458 time(s)
Unknown


(IMG:https://metalarea.org/images/audiocovers/2022_Jan/acov_tid360528_thumb.jpg)

*Artist: Nuclear Fire
*Album: Peligro De Extinción [ep]
*Year: 2022
*Genre: Thrash Metal
*Country: Chile (IMG:https://metalarea.org/forum/style_images/flags/Chile.png)
*Format: mp3@CBR320kbps
*Size: 40MB

Tracklist:
1. Intro 01:16
2. Furia en la Oscuridad 04:43
3. Peligro de Extinción 05:38
4. Pandemia 05:37
******************************
Total playing time: 17:14



Technical info
(IMG:https://metalarea.org/images/spectrogram/2022_Jan/49165753bf773a0caf933e0473b3f726.png)
Input File: Nuclear Fire - Peligro de Extinción - 03 Peligro de Extinción.mp3
Channels : 2
Sample Rate : 44100
Precision : 16-bit
Duration : 00:05:38.59 = 14931863 samples = 25394.3 CDDA sectors
File Size : 13.7M
Bit Rate : 323k
Sample Encoding: MPEG audio (layer I, II or III)
Comments :
Title=Peligro de Extinción
Artist=Nuclear Fire
Album=Peligro de Extinción
Tracknumber=3
Year=2022



Register


Go to the top of the page
  Insert nick Quick quote
+Quote Post
 
Start new topic
Replies (1 - 3)
post Jan 15 2022, 05:23:03
Post #2

Два Литра
**
Group: Завсегдатай
Posts: 189
Releases: 0
On Forums: 12 years 2 months
Thanks: 71 time(s)
Unknown


Вы пишите в графе "Жанр" не просто трэш, а олдскулл или современное фуфло. Приходится тонны трэша перелопачивать, прежде чем злобный олдскулл попадется!
То же самое и с блэком - пишите, тру или не тру. А то написано блэк, включаешь - а там попса чуть тяжелее, чем у Газманова!
Go to the top of the page
  Insert nick Quick quote
+Quote Post
post Jan 15 2022, 08:21:20
Post #3

hearer & reader
**************
Group: Металариец
Posts: 10,068
Releases: 183
From: Moscow
On Forums: 14 years 4 months
Thanks: 11657 time(s)
Russian Federation


Ага, напишешь "Old School", так тут же набежит полдюжины таких анархистов и заплюют (IMG:style_emoticons/default/15.gif)
Go to the top of the page
  Insert nick Quick quote
+Quote Post
post Jan 18 2022, 10:55:04
Post #4

0%Tolerance
***********
Group: Металариец
Posts: 1,637
Releases: 0
On Forums: 9 years 4 months
Thanks: 320 time(s)
Unknown


Драйвовая, гривобесная трэшка, латинос на вокале только отчасти бесит, но в целом - годно.
Go to the top of the page
  Insert nick Quick quote
+Quote Post

Reply to this topicStart new topic
2 User(s) are reading this topic (2 Guests and 0 Anonymous Users)
0 Members:

 



- Lo-Fi Version Support form
Copyrights and abuse reports form
Time is now: 22nd January 2022 - 18:49:38