Welcome Guest ( Log In | Register )

> Releases Upload / Добавление релизов

Добавить релиз тут / Click here to add release
Рекомендованные обменники / Recommended file shares

 
Reply to this topicStart new topic
> Dim Aura - The Negation Of Existence (2013), Black Metal (D4)
post Jan 15 2022, 00:19:02
Post #1

Правь статус, 616
**************
Group: Металариец
Posts: 7,248
Releases: 5661
From: 55°35’N 38°08’E
On Forums: 13 years 6 months
Thanks: 104781 time(s)
Unknown


(IMG:https://metalarea.org/images/audiocovers/2022_Jan/acov_tid360529_thumb.jpg)

*Artist: Dim Aura
*Album: The Negation Of Existence
*Year: 2013
*Genre: Black Metal
*Country: Israel (IMG:https://metalarea.org/forum/style_images/flags/Israel.png)
*Format: mp3@CBR320kbps
*Size: 105MB

Tracklist:
1.Gods of the Undying Darkness 05:57
2.The Golden Tombs 04:46
3.Scarred Flesh Supremacy 04:55
4.Rev 17:5 07:21
5.Pissed and Infernal 05:18
6.Thus Negating All Existence 06:15
7.Black Aeon 06:09
8.Black Metal Genocide 04:33
******************************
Total playing time: 45:14



(IMG:https://metalarea.org/images/youtube.png)

Technical info
(IMG:https://metalarea.org/images/spectrogram/2022_Jan/2dfe1a874fb845fc1f21aca1f830ba34.png)
Input File: 01 Gods of the Undying Darkness.mp3
Channels : 2
Sample Rate : 44100
Precision : 16-bit
Duration : 00:05:55.94 = 15696998 samples = 26695.6 CDDA sectors
File Size : 14.4M
Bit Rate : 323k
Sample Encoding: MPEG audio (layer I, II or III)
Comments :
Title=Gods of the Undying Darkness
Artist=Dim Aura
Album=The Negation of Existence
Tracknumber=1
Year=2013
Genre=Black Metal



Register


Go to the top of the page
  Insert nick Quick quote
+Quote Post

Reply to this topicStart new topic
1 User(s) are reading this topic (1 Guests and 0 Anonymous Users)
0 Members:

 



- Lo-Fi Version Support form
Copyrights and abuse reports form
Time is now: 22nd January 2022 - 19:31:25