Welcome Guest ( Log In | Register )

> Releases Upload / Добавление релизов

Добавить релиз тут / Click here to add release
Рекомендованные обменники / Recommended file shares

 
Reply to this topicStart new topic
> Dark Triumph - Black Chaos Legion (2022), Symphonic Black Metal
post Jan 15 2022, 00:27:00
Post #1

Правь статус, ####!111
**************
Group: Металариец
Posts: 28,572
Releases: 20918
From: Г.Харьков
On Forums: 9 years 8 months
Thanks: 427458 time(s)
Unknown


(IMG:https://metalarea.org/images/audiocovers/2022_Jan/acov_tid360530_thumb.jpg)

*Artist: Dark Triumph
*Album: Black Chaos Legion
*Year: 2022
*Genre: Symphonic Black Metal
*Country: Brazil (IMG:https://metalarea.org/forum/style_images/flags/Brazil.png)
*Format: mp3@CBR320kbps
*Size: 89MB

Tracklist:
1. The Hope of Mercy 02:58 instrumental
2. Warfare Environment 06:16
3. Forgotten Walls of Madness 03:53
4. Winter Nights 05:50
5. Temple of Lies 05:44
6. Black Chaos Legion 05:32
7. Unusual Thoughts 02:06 instrumental
8. Lost in the Eternal Darkness 05:56
******************************
Total playing time: 38:15



Extended info
Occultus All instruments, Vocals (2022-present)
See also: Worship Him, ex-Hellthrash, ex-Mørkt


Technical info
(IMG:https://metalarea.org/images/spectrogram/2022_Jan/57c257a4fbfb35bcda89988ee7bc5004.png)
Input File: Dark Triumph - Black Chaos Legion - 05 Temple of Lies.mp3
Channels : 2
Sample Rate : 44100
Precision : 16-bit
Duration : 00:05:44.73 = 15202593 samples = 25854.8 CDDA sectors
File Size : 13.9M
Bit Rate : 323k
Sample Encoding: MPEG audio (layer I, II or III)
Comments :
Title=Temple of Lies
Artist=Dark Triumph
Album=Black Chaos Legion
Tracknumber=5
Year=2022



Register


Go to the top of the page
  Insert nick Quick quote
+Quote Post

Reply to this topicStart new topic
1 User(s) are reading this topic (1 Guests and 0 Anonymous Users)
0 Members:

 



- Lo-Fi Version Support form
Copyrights and abuse reports form
Time is now: 22nd January 2022 - 18:48:14