Welcome Guest ( Log In | Register )

> Releases Upload / Добавление релизов

Добавить релиз тут / Click here to add release
Рекомендованные обменники / Recommended file shares

> Funeral Hymn - Bellum (2022), Heavy/Thrash Metal
post Jan 15 2022, 01:09:53
Post #1

Правь статус, ####!111
**************
Group: Металариец
Posts: 28,572
Releases: 20918
From: Г.Харьков
On Forums: 9 years 8 months
Thanks: 427460 time(s)
Unknown


(IMG:https://metalarea.org/images/audiocovers/2022_Jan/acov_tid360531_thumb.jpg)

*Artist: Funeral Hymn
*Album: Bellum
*Year: 2022
*Genre: Heavy/Thrash Metal
*Country: Mexico (IMG:https://metalarea.org/forum/style_images/flags/Mexico.png)
*Format: mp3@CBR320kbps
*Size: 85MB

Tracklist:
1. Bellum 06:42
2. Blood Desire 05:08
3. Dominance 04:40
4. Forgiven by Heaven 04:58
5. Kingdom Lies (feat. Legovia)Legovia 05:53
6. Age of Perish 04:48
7. Violencia (feat. Rafa Cicuta)Rafa Cicuta 04:40
******************************
Total playing time: 36:49




Extended info
Diego Vasquez Guitars (2014-2015, ?-present)
Adrián Hernández Drums (2013-present)
Tommy Sandoval Bass, Vocals (2014-present)
Max Zaleta Guitars (2014-present), Vocals (2015-present)



Technical info
(IMG:https://metalarea.org/images/spectrogram/2022_Jan/fc1b0761b7557f6ab6985bec8671671e.png)
Input File: 05 - Kingdom Lies (feat. Legovia).mp3
Channels : 2
Sample Rate : 44100
Precision : 16-bit
Duration : 00:05:53.09 = 15571269 samples = 26481.7 CDDA sectors
File Size : 14.3M
Bit Rate : 323k
Sample Encoding: MPEG audio (layer I, II or III)
Comments :
Title=Kingdom Lies (feat. Legovia)
Artist=Funeral Hymn
Album=Bellum
Tracknumber=5/1



Register


Go to the top of the page
  Insert nick Quick quote
+Quote Post
 
Start new topic
Replies (1 - 1)
post Jan 19 2022, 09:17:20
Post #2

MDM-Thrash Metal
**************
Group: Металариец
Posts: 10,778
Releases: 1359
From: Одесса
On Forums: 14 years 5 months
Thanks: 32781 time(s)
Ukraine


Go to the top of the page
  Insert nick Quick quote
+Quote Post

Reply to this topicStart new topic
1 User(s) are reading this topic (1 Guests and 0 Anonymous Users)
0 Members:

 



- Lo-Fi Version Support form
Copyrights and abuse reports form
Time is now: 22nd January 2022 - 19:02:03