Welcome Guest ( Log In | Register )

> Releases Upload / Добавление релизов

Добавить релиз тут / Click here to add release
Рекомендованные обменники / Recommended file shares

 
Reply to this topicStart new topic
> Necro Weasel - Global Warning (2022), Crossover/Hardcore/Thrash Metal
post Jan 15 2022, 01:36:24
Post #1

Правь статус, ####!111
**************
Group: Металариец
Posts: 28,572
Releases: 20918
From: Г.Харьков
On Forums: 9 years 8 months
Thanks: 427468 time(s)
Unknown


(IMG:https://metalarea.org/images/audiocovers/2022_Jan/acov_tid360532_thumb.jpg)

*Artist: Necro Weasel
*Album: Global Warning
*Year: 2022
*Genre: Crossover/Hardcore/Thrash Metal
*Country: Finland (IMG:https://metalarea.org/forum/style_images/flags/Finland.png)
*Format: mp3@CBR320kbps
*Size: 88MB

Tracklist:
1. Chronic Failure 04:52
2. Global Warning 03:23
3. Fight or Flight 04:09
4. Inner Peace 03:43
5. Killing Business 03:48
6. No Salvation 03:05
7. Victims 03:30
8. Inevitable Destruction 04:58
9. Wave of Hope 05:25
******************************
Total playing time: 36:53





Extended info
East Bay Max Drums (2020-present)
Necro Weasel Vocals, Guitars, Bass (2020-present)


Technical info
(IMG:https://metalarea.org/images/spectrogram/2022_Jan/b20f008dbc7c011170bf544d35d242c8.png)
Input File: 09 - Wave of Hope.mp3
Channels : 2
Sample Rate : 44100
Precision : 16-bit
Duration : 00:05:25.22 = 14342026 samples = 24391.2 CDDA sectors
File Size : 13.4M
Bit Rate : 330k
Sample Encoding: MPEG audio (layer I, II or III)
Comments :
Title=Wave of Hope
Artist=Necro Weasel
Album=Global Warning
Tracknumber=9/1



Register


Go to the top of the page
  Insert nick Quick quote
+Quote Post

Reply to this topicStart new topic
1 User(s) are reading this topic (1 Guests and 0 Anonymous Users)
0 Members:

 



- Lo-Fi Version Support form
Copyrights and abuse reports form
Time is now: 22nd January 2022 - 19:11:50