Welcome Guest ( Log In | Register )

 
Reply to this topicStart new topic
> Mass Deception - Halls Of Amenti [ep] (2022), Thrash Metal
post Jan 15 2022, 02:06:12
Post #1

Правь статус, ####!111
**************
Group: Металариец
Posts: 29,672
Releases: 21826
From: Г.Харьков
On Forums: 10 years 1 month
Thanks: 452546 time(s)
Unknown


(IMG:https://metalarea.org/images/audiocovers/2022_Jan/acov_tid360533_thumb.jpg)

*Artist: Mass Deception
*Album: Halls Of Amenti [ep]
*Year: 2022
*Genre: Thrash Metal
*Country: Netherlands (IMG:https://metalarea.org/forum/style_images/flags/Netherlands.png)
*Format: mp3@CBR320kbps
*Size: 46MB

Tracklist:
1. Craft of the Wize 03:37
2. Red Dawn 03:34
3. Zin Uru 05:27
4. Halls of Amenti 07:01
******************************
Total playing time: 19:39



Extended info
Van den Beuken Bass
See also: ex-Defcon One
Søren Drums
See also: ex-Defcon One
Bänziger Guitars
See also: ex-Defcon One, ex-Engine of Pain
Waltmans Guitars
See also: ex-Angels Decay, ex-Engine of Pain, ex-Fifth, ex-Involved, Terrafyght
Stockbroeks Vocals (2018-present)
See also: ex-Engine of Pain, ex-Powervice, ex-Stormrider




Technical info
(IMG:https://metalarea.org/images/spectrogram/2022_Jan/32351a7b40512e9d0009cbbab1d29085.png)
Input File: 04 - Halls of Amenti.mp3
Channels : 2
Sample Rate : 44100
Precision : 16-bit
Duration : 00:07:01.09 = 18570113 samples = 31581.8 CDDA sectors
File Size : 17.1M
Bit Rate : 324k
Sample Encoding: MPEG audio (layer I, II or III)
Comments :
Title=Halls of Amenti
Artist=Mass Deception
Album=Halls of Amenti
Tracknumber=4/1



Register


Go to the top of the page
  Insert nick Quick quote
+Quote Post

Reply to this topicStart new topic
1 User(s) are reading this topic (1 Guests and 0 Anonymous Users)
0 Members:

 



- Lo-Fi Version Support form
Copyrights and abuse reports form
Time is now: 5th July 2022 - 08:14:14