Welcome Guest ( Log In | Register )

> Releases Upload / Добавление релизов

Добавить релиз тут / Click here to add release
Рекомендованные обменники / Recommended file shares

> Desolate Grave - Det Sista Steget [ep] (2022), Symphonic Doom/Death Metal
post Jan 15 2022, 02:25:44
Post #1

Правь статус, ####!111
**************
Group: Металариец
Posts: 28,574
Releases: 20918
From: Г.Харьков
On Forums: 9 years 8 months
Thanks: 427475 time(s)
Unknown


(IMG:https://metalarea.org/images/audiocovers/2022_Jan/acov_tid360534_thumb.jpg)

*Artist: Desolate Grave
*Album: Det Sista Steget [ep]
*Year: 2022
*Genre: Symphonic Doom/Death Metal
*Country: Sweden (IMG:https://metalarea.org/forum/style_images/flags/Sweden.png)
*Format: mp3@CBR320kbps
*Size: 42MB

Tracklist:
1. Prelyudiya 01:25 instrumental
2. Nezariy 04:15
3. Trakhym 05:14
4. Intermediya 00:54
5. Lariysa 06:37
******************************
Total playing time: 18:25




Extended info
David "Pos" Mauritzon All instruments, Vocals
See also: Belarus Beaver, Öldöds, Sign of Cain, RazorRape (live), ex-Böld, ex-Fuzzgod, ex-Oriz


Technical info
(IMG:https://metalarea.org/images/spectrogram/2022_Jan/1c501580fe8ab4c8f1b8e9f51571ca14.png)
Input File: 05. Lariysa.mp3
Channels : 2
Sample Rate : 44100
Precision : 16-bit
Duration : 00:06:37.23 = 17517667 samples = 29792 CDDA sectors
File Size : 15.9M
Bit Rate : 320k
Sample Encoding: MPEG audio (layer I, II or III)
Comments :
Title=Lariysa
Artist=Desolate Grave
Album=Det Sista Steget
Tracknumber=5
Year=2022
Genre=Metal



Register


Go to the top of the page
  Insert nick Quick quote
+Quote Post
 
Start new topic
Replies (1 - 4)
post Jan 15 2022, 19:13:21
Post #2

Четыре Литра
****
Group: Металариец
Posts: 399
Releases: 0
On Forums: 3 years 11 months
Thanks: 148 time(s)
Belarus


Местами, напоминает великолепных "Abstract Spirit", но Funeral в пятиминутных композициях и практически полное отсутствие мелодий...
Go to the top of the page
  Insert nick Quick quote
+Quote Post
post Jan 15 2022, 23:00:37
Post #3

хаос и порядок
*****
Group: Металариец
Posts: 467
Releases: 0
From: Запорожье
On Forums: 11 years 8 months
Thanks: 237 time(s)
Ukraine


Мне больше интересно к чему эти туристы в Припяти на обложке.
Охотно верю в хороший полноформатник если он когда-нибудь случится.
Go to the top of the page
  Insert nick Quick quote
+Quote Post
post Jan 16 2022, 17:14:36
Post #4

Common dweller of hell
**************
Group: Металариец
Posts: 4,189
Releases: 12
From: Dnipro
On Forums: 13 years 6 months
Thanks: 1645 time(s)
Ukraine


ЦИТАТА(skidnik @ Jan 16 2022, 00:00:37) *
Мне больше интересно к чему эти туристы в Припяти на обложке.
Просто музыканты фанаты игры STALKER (IMG:style_emoticons/default/25.gif) По музыке, так очень хорошо (IMG:style_emoticons/default/crazy.gif)
Go to the top of the page
  Insert nick Quick quote
+Quote Post
post Jan 17 2022, 12:09:28
Post #5

Три Литра
***
Group: Завсегдатай
Posts: 271
Releases: 0
From: Калуга
On Forums: 3 years 11 months
Thanks: 79 time(s)
Russian Federation


ЦИТАТА(isvili @ Jan 16 2022, 17:14:36) *
По музыке, так очень хорошо (IMG:style_emoticons/default/crazy.gif)

Go to the top of the page
  Insert nick Quick quote
+Quote Post

Reply to this topicStart new topic
1 User(s) are reading this topic (1 Guests and 0 Anonymous Users)
0 Members:

 



- Lo-Fi Version Support form
Copyrights and abuse reports form
Time is now: 22nd January 2022 - 19:36:50