Welcome Guest ( Log In | Register )

 
Reply to this topicStart new topic
> Effluvia - World Termination [demo] (1993), Death Metal/Grindcore
post Jan 15 2022, 14:29:12
Post #1

Подвал
**************
Group: Металариец
Posts: 17,403
Releases: 9955
From: Far East (Khabarovsk)
On Forums: 13 years 5 months
Thanks: 115414 time(s)
Russian Federation


(IMG:http://metalarea.org/images/audiocovers/2022_Jan/acov_tid360541_thumb.jpg)

*Artist: Effluvia
*Album: World Termination [demo]
*Year: 1993
*Genre: Death Metal/Grindcore
*Country: United States (IMG:http://metalarea.org/forum/style_images/flags/United%20States.png)
*Format: mp3@CBR128kbps (IMG:http://metalarea.org/images/bit_low.gif)
*Size: 8MB

Tracklist:
1. World Termination 03:41
2. Cadaverous Compost 01:46
3. Blood Fermentation 02:38
******************************
Total playing time: 8:05




Extended info
Band from Tacoma/Lakewood, Washington.
Self-produced and recorded by Effluvia and Garth P. Saylor.
"World Termination" was recorded on October 5, 1992.
"Cadaverous Compost" was recorded on December 27, 1992.
"Blood Fermentation" was recorded on January 15, 1993.


Technical info
(IMG:http://metalarea.org/images/spectrogram/2022_Jan/f92e7fc35661910421d2214403294a3b.png)
Input File: 01-World Termination.mp3
Channels : 2
Sample Rate : 44100
Precision : 16-bit
Duration : 00:03:41.31 = 9759815 samples = 16598.3 CDDA sectors
File Size : 3.54M
Bit Rate : 128k
Sample Encoding: MPEG audio (layer I, II or III)
Comments :
Title=World Termination
Artist=Effluvia (US, WA)
Album=World Termination (Demo)
Tracknumber=01
Year=1993
Genre=Death Metal



Register


Go to the top of the page
  Insert nick Quick quote
+Quote Post

Reply to this topicStart new topic
1 User(s) are reading this topic (1 Guests and 0 Anonymous Users)
0 Members:

 



- Lo-Fi Version Support form
Copyrights and abuse reports form
Time is now: 3rd July 2022 - 18:07:07