Welcome Guest ( Log In | Register )

Объявления

* gmail.com упорно продолжает считать почту с нас "unsolicited" и отбивает в том числе и письма активации, поэтому просьба использовать альтернативные почтовые ящики.
------------
* gmail.com continues reject all mail from us as "unsolicited" (activation mails too) therefore please use alternate mail servers.
> Vrildom - Sigma Octantis (2021), Black Metal
post Jan 19 2022, 15:58:47
Post #1

Правь статус, ####!111
**************
Group: Металариец
Posts: 2,749
Releases: 2261
From: Praha
On Forums: 10 years 1 month
Thanks: 63806 time(s)
Czech Republic


(IMG:http://metalarea.org/images/audiocovers/2022_Jan/acov_tid360663_thumb.jpg)

*Artist: Vrildom
*Album: Sigma Octantis
*Year: 2021
*Genre: Black Metal
*Country: Argentina (IMG:http://metalarea.org/forum/style_images/flags/Argentina.png)
*Format: mp3@VBR245kbps
*Size: 93MB

Tracklist:
1. Crossing Invisible Walls Toward Wintek's Fortress 03:03
2. Blades More Cruel than Human Hatred 05:50
3. An Arrow of the Will 08:06
4. Sigma Octantis 05:16
5. Assembling Fragments of a Broken Sword 06:52
6. A Blood Banner Flies Proud in the Austral Depths 05:17
7. Mournful Anthem for the Dead Wolves 06:16
8. Viento blanco 04:24
******************************
Total playing time: 45:04

Extended info
Scene / BERC
Breath of Pestilence - BOP067


Technical info
(IMG:http://metalarea.org/images/spectrogram/2022_Jan/746b39ef1fa29588ddb305d57d52e7d6.png)
Input File: 02-vrildom-blades_more_cruel_than_human_hatred-berc.mp3
Channels : 2
Sample Rate : 44100
Precision : 16-bit
Duration : 00:05:50.22 = 15444834 samples = 26266.7 CDDA sectors
File Size : 12.4M
Bit Rate : 284k
Sample Encoding: MPEG audio (layer I, II or III)
Comments :
Title=Blades More Cruel than Human Hatred
Artist=Vrildom
Album=Sigma Octantis
Tracknumber=2/8
Year=2021
Genre=Black Metal



Register


Go to the top of the page
  Insert nick Quick quote
+Quote Post
 
Start new topic
Replies (1 - 2)
post Jan 20 2022, 05:42:02
Post #2

While Waiting the Worms
***********
Group: Металариец
Posts: 1,614
Releases: 0
On Forums: 10 years 5 months
Thanks: 2545 time(s)
Unknown




Thanks:
(1) Occultas,
Go to the top of the page
  Insert nick Quick quote
+Quote Post
post Feb 29 2024, 11:58:19
Post #3

Мегаманьяк
***********
Group: Металариец
Posts: 1,890
Releases: 26
From: Москва
On Forums: 16 years 1 month
Thanks: 1343 time(s)
Antarctica


Классный аргентинский блэк, который вдохновлялся греческой школой. Тут сразу и Ахеронтас вспоминается, и Кавир, и Водульф. Композиции среднетемповые, длинные, медитативные, но со щепоткой триумфальности и вот этой вот хрустящей античной возвышенностью. Любителям зайдёт.


Thanks:
(1) Izverg,
Go to the top of the page
  Insert nick Quick quote
+Quote Post

Reply to this topicStart new topic
2 User(s) are reading this topic (2 Guests and 0 Anonymous Users)
0 Members:

 



- Lo-Fi Version Support form
Copyrights and abuse reports form
Time is now: 26th May 2024 - 10:44:56