Welcome Guest ( Log In | Register )

> Releases Upload / Добавление релизов

Добавить релиз тут / Click here to add release
Рекомендованные обменники / Recommended file shares

 
Reply to this topicStart new topic
> Habitual Slaughter - Feast For The Beast [ep] (2022), Old-School Death Metal
post Jan 22 2022, 08:23:27
Post #1

Мегаманьяк
***********
Group: Металариец
Posts: 1,971
Releases: 653
On Forums: 11 years 2 months
Thanks: 13896 time(s)
Italy


(IMG:https://metalarea.org/images/audiocovers/2022_Jan/acov_tid360773_thumb.jpg)

*Artist: Habitual Slaughter
*Album: Feast For The Beast [ep]
*Year: 2022
*Genre: Old-School Death Metal
*Country: United Kingdom (IMG:https://metalarea.org/forum/style_images/flags/United%20Kingdom.png)
*Format: mp3@CBR320kbps
*Size: 33MB

Tracklist:
1.Demon 03:18
2.Feast For The Beast 02:13
3.Unspeakable Demise 03:08
4.Blood Soaked Maniac 01:51
5.Evil Incarnate 03:25
******************************
Total playing time: 13:55



Technical info
(IMG:https://metalarea.org/images/spectrogram/2022_Jan/ff3d5695c33ddd6ded8294f88d04e4c1.png)
Input File: 04. Blood Soaked Maniac.mp3
Channels : 2
Sample Rate : 44100
Precision : 16-bit
Duration : 00:01:51.55 = 4919443 samples = 8366.4 CDDA sectors
File Size : 4.46M
Bit Rate : 320k
Sample Encoding: MPEG audio (layer I, II or III)
Comments :
Title=Blood Soaked Maniac
Artist=Habitual Slaughter
Album=Feast for the Beast
Tracknumber=04
Year=2022
Genre=Old-School Death Metal



Register


Go to the top of the page
  Insert nick Quick quote
+Quote Post

Reply to this topicStart new topic
1 User(s) are reading this topic (1 Guests and 0 Anonymous Users)
0 Members:

 



- Lo-Fi Version Support form
Copyrights and abuse reports form
Time is now: 24th January 2022 - 21:40:35