Welcome Guest ( Log In | Register )

> Releases Upload / Добавление релизов

Добавить релиз тут / Click here to add release
Рекомендованные обменники / Recommended file shares

> In Hell - Lex Divina Terrores (2022), Black/Death Metal (D9)
post Jan 22 2022, 11:18:49
Post #1

Восемь Литров
********
Group: Металариец
Posts: 839
Releases: 705
On Forums: 8 months 4 weeks
Thanks: 18001 time(s)
United States


(IMG:http://metalarea.org/images/audiocovers/2022_Jan/acov_tid360775_thumb.jpg)

*Artist: In Hell
*Album: Lex Divina Terrores
*Year: 2022
*Genre: Black/Death Metal
*Country: France (IMG:http://metalarea.org/forum/style_images/flags/France.png)
*Format: mp3@CBR320kbps
*Size: 108MB

Tracklist:
01. Liturgy of Charlatan's Sabbat
02. Excommunication
03. Vatican-Cunt from Babylonian
04. Ishtar and Boneless
05. A Deviant Apostasy
06. Theologia for Baphomet
07. Hunter Become the Hunted
08. Amiyn
09. Nihilism for Never Follow the Sheep
******************************
Total playing time: 43:06




Extended info


Technical info
(IMG:http://metalarea.org/images/spectrogram/2022_Jan/19672895ee2c66ddb6e6dbcc34641a69.png)
Input File: 02. Excommunication.mp3
Channels : 2
Sample Rate : 44100
Precision : 16-bit
Duration : 00:04:30.46 = 11927418 samples = 20284.7 CDDA sectors
File Size : 11.1M
Bit Rate : 329k
Sample Encoding: MPEG audio (layer I, II or III)
Comments :
Title=Excommunication
Artist=In Hell
Album=Lex Divina Terrores
Tracknumber=02/09
Year=2022
Discnumber=1



Register


Go to the top of the page
  Insert nick Quick quote
+Quote Post
 
Start new topic
Replies (1 - 1)
post Yesterday, 19:57:42
Post #2

melofags sniper
**************
Group: Металариец
Posts: 6,654
Releases: 0
On Forums: 13 years 10 months
Thanks: 7525 time(s)
Sudan


Nothing interesting here.
Go to the top of the page
  Insert nick Quick quote
+Quote Post

Reply to this topicStart new topic
2 User(s) are reading this topic (1 Guests and 0 Anonymous Users)
1 Members: Mortis

 



- Lo-Fi Version Support form
Copyrights and abuse reports form
Time is now: 24th January 2022 - 20:36:37