Welcome Guest ( Log In | Register )

> Disinter - Demolition [compilation] (2022), Death Metal
post Jan 22 2022, 21:19:12
Post #1

Правь статус, ####!111
**************
Group: Металариец
Posts: 29,680
Releases: 21832
From: Г.Харьков
On Forums: 10 years 1 month
Thanks: 452697 time(s)
Unknown


(IMG:https://metalarea.org/images/audiocovers/2022_Jan/acov_tid360801_thumb.jpg)

*Artist: Disinter
*Album: Demolition [compilation]
*Year: 2022
*Genre: Death Metal
*Country: United States (IMG:https://metalarea.org/forum/style_images/flags/United%20States.png)
*Format: mp3@CBR320kbps
*Size: 86MB

Tracklist:
1. Demoliton of the Mind
2. Dead Inside
3. Disinter
4. Red Queen
5. The Hell We've Become
6. Demonic Portraiture
7. Reanimate the Ravenous
8. The Curse of Eternal Night
9. Breaker of Bones
******************************
Total playing time: 36:53




Extended info
Mike LeGros Guitars
See also: Cold Bearded Killers, Earthen, Eyegouger, Hells' Corpse, Metallian, ex-Arise, ex-Jungle Rot, ex-Novembers Doom, ex-Nachtmystium, ex-These Are They, ex-The Narthex
Bats Guitars (1992-present)
See also: Corphagy, Incessant Collapse, ex-Crematorium, ex-Jugular Appetizer, ex-Morgue Supplier, ex-Asscavern, ex-Embodied
Jon Billman Bass (2015-present)
Max Colunga Drums (2015-present)
See also: Hunter-Killer, ex-Arbiter, ex-Morningstar, ex-Rellik, ex-Worms Inside, ex-Blood of the Wolf, ex-Deist, ex-Whorrid, ex-Martyr
Casey Loving Vocals (2018-present)
See also: Kaos Rising, ex-Emesis, ex-Mass Mutilation


Technical info
(IMG:https://metalarea.org/images/spectrogram/2022_Jan/67ef89d92b7f16ab2eb602934c6a16ee.png)
Input File: 08. The Curse of Eternal Night.mp3
Channels : 2
Sample Rate : 44100
Precision : 16-bit
Duration : 00:04:32.00 = 11995200 samples = 20400 CDDA sectors
File Size : 11.2M
Bit Rate : 330k
Sample Encoding: MPEG audio (layer I, II or III)
Comments :
Title=The Curse of Eternal Night
Artist=Disinter
Album=Demolition
Tracknumber=08
Year=2022
Genre=Metal



Register


Go to the top of the page
  Insert nick Quick quote
+Quote Post
 
Start new topic
Replies (1 - 1)
post Jan 23 2022, 11:46:54
Post #2

Old School Metal
**************
Group: Металариец
Posts: 4,457
Releases: 0
From: г. Минск
On Forums: 13 years 3 months
Thanks: 11570 time(s)
Belarus


Lossless: FLAC (tracks)
Register


Thanks:
Go to the top of the page
  Insert nick Quick quote
+Quote Post

Reply to this topicStart new topic
1 User(s) are reading this topic (1 Guests and 0 Anonymous Users)
0 Members:

 



- Lo-Fi Version Support form
Copyrights and abuse reports form
Time is now: 6th July 2022 - 07:44:46