Welcome Guest ( Log In | Register )

 
Reply to this topicStart new topic
> Angelblast - Throne Of Ashes [ep] (2022), Death/Black Metal
post Jan 27 2022, 18:53:06
Post #1

Правь статус, ####!111
**************
Group: Металариец
Posts: 5,082
Releases: 4667
From: Одесса
On Forums: 13 years 11 months
Thanks: 54149 time(s)
Ukraine


(IMG:http://metalarea.org/images/audiocovers/2022_Jan/acov_tid360965_thumb.jpg)

*Artist: Angelblast
*Album: Throne Of Ashes [ep]
*Year: 2022
*Genre: Death/Black Metal
*Country: International (IMG:http://metalarea.org/forum/style_images/flags/International.png)
*Format: mp3@CBR320kbps
*Size: 26MB

Tracklist:
1. Throne of Ashes 05:52
2. Tartarus 04:48
******************************
Total playing time: 10:40



Extended info
Line - up:

Hempa Brynolfsson - Guitars (Darkened, Ordo Inferus, ex-Mykorrhiza, ex-Obscuratum, ex-Internal Decay, ex-Carbonized, ex-Excruciate, ex-Korgüll)
Gord Olson - Vocals, Lead Guitars (Darkened, Demisery, Divinity, Ye Goat-Herd Gods, ex-Despirited)
Johan Bergebäck - Bass (In Aphelion, Necrophobic, Ordo Inferus, ex-Morpheus, ex-Black Trip, ex-Exhumed, ex-Dismember, ex-Nifelheim, ex-VOJD, ex-Amon Amarth (live))
Perra Karlsson - Drums (Dreadful Fate, In Aeternum, Nex, Nominon, ex-Dion Fortune, ex-Serpent, ex-T.A.R, ex-Wortox, ex-Deströyer 666, ex-Die Hard, ex-Thorium, ex-Toxaemia, ex-Benediction (live), ex-Interment (live), ex-Altar, ex-Suffer, ex-Nasum (live))


Technical info
(IMG:http://metalarea.org/images/spectrogram/2022_Jan/e476ea10ec951a213ecce51d0a9fff4c.png)
Input File: 01. Throne of Ashes.mp3
Channels : 2
Sample Rate : 44100
Precision : 16-bit
Duration : 00:05:52.15 = 15529947 samples = 26411.5 CDDA sectors
File Size : 14.1M
Bit Rate : 320k
Sample Encoding: MPEG audio (layer I, II or III)
Comments :
Title=Throne of Ashes
Artist=AngelBlast
Album=Throne of Ashes (EP)
Tracknumber=01
Year=2022
Genre=Death | Black Metal



Register


Go to the top of the page
  Insert nick Quick quote
+Quote Post

Reply to this topicStart new topic
1 User(s) are reading this topic (1 Guests and 0 Anonymous Users)
0 Members:

 



- Lo-Fi Version Support form
Copyrights and abuse reports form
Time is now: 24th May 2022 - 19:27:25