Welcome Guest ( Log In | Register )

Объявления

* gmail.com упорно продолжает считать почту с нас "unsolicited" и отбивает в том числе и письма активации, поэтому просьба использовать альтернативные почтовые ящики.
------------
* gmail.com continues reject all mail from us as "unsolicited" (activation mails too) therefore please use alternate mail servers.
> Benthik Zone - Εἴδωλον (2022), Atmospheric Black Metal (D7)
post Feb 3 2022, 18:42:10
Post #1

Правь статус, ####!111
**************
Group: Металариец
Posts: 36,460
Releases: 27188
From: Г.Харьков
On Forums: 12 years 2 months
Thanks: 592729 time(s)
Ukraine


(IMG:https://metalarea.org/images/audiocovers/2022_Feb/acov_tid361230_thumb.jpg)

*Artist: Benthik Zone
*Album: Εἴδωλον
*Year: 2022
*Genre: Atmospheric Black Metal
*Country: Portugal (IMG:https://metalarea.org/forum/style_images/flags/Portugal.png)
*Format: mp3@CBR320kbps
*Size: 109MB

Tracklist:
1. Atravesso o Portal Mítico 02:01 instrumental
2. E Embriagado pelo Reflexo 08:28
3. Sonho-a Desnuda 08:10
4. Na Iluminação do Presente 07:59
5. Qual Espectro 01:53 instrumental
6. Da Zona Perdida no Tempo 07:28
7. Imenso Abismo do Reino Submerso 11:27
******************************
Total playing time: 47:26




Technical info
(IMG:https://metalarea.org/images/spectrogram/2022_Feb/919bf77d394646bb1287dee2740d0062.png)
Input File: 04 - na iluminação do presente.mp3
Channels : 2
Sample Rate : 44100
Precision : 16-bit
Duration : 00:07:59.64 = 21151992 samples = 35972.8 CDDA sectors
File Size : 19.3M
Bit Rate : 322k
Sample Encoding: MPEG audio (layer I, II or III)
Comments :
Title=na iluminação do presente
Artist=Benthik Zone
Album=εἴδωλον
Tracknumber=4
Year=2022
Discnumber=1



Register


Go to the top of the page
  Insert nick Quick quote
+Quote Post
 
Start new topic
Replies (1 - 1)
post Feb 6 2022, 13:43:13
Post #2

Group: Подсевший
Posts: 37
Releases: 0
On Forums: 15 years 1 week
Thanks: 29 time(s)
Ukraine


Нечто нечленораздельное.


Thanks:
(1) Krosis,
Go to the top of the page
  Insert nick Quick quote
+Quote Post

Reply to this topicStart new topic
1 User(s) are reading this topic (1 Guests and 0 Anonymous Users)
0 Members:

 



- Lo-Fi Version Support form
Copyrights and abuse reports form
Time is now: 24th July 2024 - 12:53:52