Welcome Guest ( Log In | Register )

> Cantu Ignis - Enslaved By Volition (2022), Melodic Death Metal
post Feb 3 2022, 21:42:43
Post #1

Маньяк
**********
Group: Металариец
Posts: 1,094
Releases: 934
On Forums: 1 year 5 months
Thanks: 24820 time(s)
United States


(IMG:http://metalarea.org/images/audiocovers/2022_Feb/acov_tid361236_thumb.jpg)

*Artist: Cantu Ignis
*Album: Enslaved By Volition
*Year: 2022
*Genre: Melodic Death Metal
*Country: United States (IMG:http://metalarea.org/forum/style_images/flags/United%20States.png)
*Format: mp3@CBR320kbps
*Size: 104MB

Tracklist:
01. Burning Through Your Eyes
02. Dying
03. Fail The King
04. Catharsis
05. The Degenerate
06. Fear Is Your God
07. Shortness Of Breath
******************************
Total playing time: 41:36



Technical info
(IMG:http://metalarea.org/images/spectrogram/2022_Feb/aa1c36dfa0dd8b549ee45bd804b587ed.png)
Input File: 02. Dying.mp3
Channels : 2
Sample Rate : 44100
Precision : 16-bit
Duration : 00:05:08.71 = 13614067 samples = 23153.2 CDDA sectors
File Size : 12.5M
Bit Rate : 323k
Sample Encoding: MPEG audio (layer I, II or III)
Comments :
Title=Dying
Artist=Cantu Ignis
Album=Enslaved By Volition
Tracknumber=02/07
Year=2022
Genre=Metal



Register


Go to the top of the page
  Insert nick Quick quote
+Quote Post
 
Start new topic
Replies (1 - 7)
post Feb 5 2022, 09:57:53
Post #2

Group: Подсевший
Posts: 20
Releases: 0
On Forums: 1 year 5 months
Thanks: 0 time(s)
Ukraine


неплохо. рекомендую!
Go to the top of the page
  Insert nick Quick quote
+Quote Post
post Feb 5 2022, 17:19:33
Post #3

Common dweller of hell
**************
Group: Металариец
Posts: 4,393
Releases: 12
From: Dnipro
On Forums: 14 years 2 months
Thanks: 1744 time(s)
Ukraine


Очень зачетное плотное звучание, да и материал не плох (IMG:style_emoticons/default/20.gif)


Thanks:
(1) Andrew,
Go to the top of the page
  Insert nick Quick quote
+Quote Post
post Feb 6 2022, 08:50:53
Post #4

MDM-Thrash Metal
**************
Group: Металариец
Posts: 11,392
Releases: 1585
From: Одесса
On Forums: 15 years 1 month
Thanks: 37451 time(s)
Ukraine


Плюсую, очень толковая работа, без всякого рода ненужной модернятины!


Thanks:
Go to the top of the page
  Insert nick Quick quote
+Quote Post
post Feb 6 2022, 15:35:01
Post #5

Old School Metal
**************
Group: Металариец
Posts: 4,590
Releases: 0
From: г. Минск
On Forums: 13 years 6 months
Thanks: 12289 time(s)
Belarus


Lossless: FLAC (tracks)
Register


Go to the top of the page
  Insert nick Quick quote
+Quote Post
post Feb 7 2022, 20:02:38
Post #6

Ёлд ХеллоВяйне
Group Icon
Group: V.I.P
Posts: 33,649
Releases: 144
From: Питер
On Forums: 15 years 11 months
Thanks: 21164 time(s)
Russian Federation


Воистину плохи дела у жанра, если такую посредственность начинают хвалить.


Go to the top of the page
  Insert nick Quick quote
+Quote Post
post Feb 8 2022, 22:14:04
Post #7

Четыре Литра
****
Group: Металариец
Posts: 380
Releases: 1
On Forums: 15 years 5 months
Thanks: 37 time(s)
Russian Federation


авангардятина какая-то. хоть и мдм.
Go to the top of the page
  Insert nick Quick quote
+Quote Post
post Apr 5 2022, 12:58:29
Post #8

к приему виски готов
*********
Group: Металариец
Posts: 914
Releases: 3
From: Украина
On Forums: 13 years 7 months
Thanks: 542 time(s)
Ukraine


добротный альбом, мелодии на месте, звук сочный, исполнено качественно. (IMG:style_emoticons/default/20.gif)


Thanks:
(1) Andrew,
Go to the top of the page
  Insert nick Quick quote
+Quote Post

Reply to this topicStart new topic
2 User(s) are reading this topic (2 Guests and 0 Anonymous Users)
0 Members:

 



- Lo-Fi Version Support form
Copyrights and abuse reports form
Time is now: 3rd October 2022 - 09:08:17