Welcome Guest ( Log In | Register )

> Spontaneous Combustion - Auto Inmolacion (2022), Slamming Brutal Death Metal (D4)
post Feb 4 2022, 14:06:26
Post #1

Маньяк
**********
Group: Металариец
Posts: 1,094
Releases: 934
On Forums: 1 year 4 months
Thanks: 24807 time(s)
United States


(IMG:http://metalarea.org/images/audiocovers/2022_Feb/acov_tid361243_thumb.jpg)

*Artist: Spontaneous Combustion
*Album: Auto Inmolacion
*Year: 2022
*Genre: Slamming Brutal Death Metal
*Country: Argentina (IMG:http://metalarea.org/forum/style_images/flags/Argentina.png)
*Format: mp3@CBR320kbps
*Size: 76MB

Tracklist:
01. Decapitando
02. Encuentro Forzoso
03. Cadaver Maltratado
04. Segrega Trombos
05. Oscuro Enfrentamiento
06. Exonerado
07. Ignicion
08. Dogma
09. Biseccion Presurosa
10. Sangra
******************************
Total playing time: 31:10



Technical info
(IMG:http://metalarea.org/images/spectrogram/2022_Feb/6919425d5907eef1287d243ec05c9375.png)
Input File: 02. Encuentro Forzoso.mp3
Channels : 2
Sample Rate : 44100
Precision : 16-bit
Duration : 00:02:38.50 = 6989674 samples = 11887.2 CDDA sectors
File Size : 6.38M
Bit Rate : 322k
Sample Encoding: MPEG audio (layer I, II or III)
Comments :
Title=Encuentro Forzoso
Artist=Spontaneous Combustion
Album=Auto Inmolacion
Tracknumber=02/10
Year=2022



Register


Go to the top of the page
  Insert nick Quick quote
+Quote Post
 
Start new topic
Replies (1 - 2)
post Feb 5 2022, 10:30:52
Post #2

Мегаманьяк
***********
Group: Металариец
Posts: 1,805
Releases: 1
From: APATIN, SERBIA, АПАТИН, СЕРБИЯ
On Forums: 14 years 11 months
Thanks: 5355 time(s)



Flac

Register


Thanks:
Go to the top of the page
  Insert nick Quick quote
+Quote Post
post Feb 6 2022, 14:42:09
Post #3

Morbid Angel
**************
Group: Металариец
Posts: 4,188
Releases: 0
From: Литва г.Клайпеда
On Forums: 15 years 6 months
Thanks: 1827 time(s)
Lithuania


https://www.youtube.com/watch?v=hA465GIRWdo


Thanks:
(1) Occultas,
Go to the top of the page
  Insert nick Quick quote
+Quote Post

Reply to this topicStart new topic
2 User(s) are reading this topic (2 Guests and 0 Anonymous Users)
0 Members:

 



- Lo-Fi Version Support form
Copyrights and abuse reports form
Time is now: 25th September 2022 - 11:48:21