Welcome Guest ( Log In | Register )

> Devoured Elysium - Void Grave (2022), Brutal Death Metal
post Feb 17 2022, 12:25:40
Post #1

Serial Uploader
Group Icon
Group: V.I.P
Posts: 42,058
Releases: 40128
From: Lithuania
On Forums: 15 years 8 months
Thanks: 511597 time(s)
Lithuania


(IMG:https://metalarea.org/images/audiocovers/2022_Feb/acov_tid361605_thumb.jpg)

*Artist: Devoured Elysium
*Album: Void Grave
*Year: 2022
*Genre: Brutal Death Metal
*Country: Turkey (IMG:https://metalarea.org/forum/style_images/flags/Turkey.png)
*Format: mp3@CBR320kbps
*Size: 63MB

Tracklist:
1. Setup 01:09
2. Void Grave 02:51
3. Mastermind 03:36
4. Green Screen Failure 03:07
5. Deus Ex Machina 04:12
6. Slam Panzer 03:23
7. Spinerender 01:11
8. Oracle 03:28
9. Chrono-Shift 03:31
******************************
Total playing time: 26:28


Preview 2

Technical info
(IMG:https://metalarea.org/images/spectrogram/2022_Feb/5f4509e0c37123bd706c49fe8e36efb9.png)
Input File: 02 - Void Grave.mp3
Channels : 2
Sample Rate : 44100
Precision : 16-bit
Duration : 00:02:50.00 = 7497000 samples = 12750 CDDA sectors
File Size : 7.03M
Bit Rate : 331k
Sample Encoding: MPEG audio (layer I, II or III)
Comments :
Title=Void Grave
Artist=Devoured Elysium
Album=Void Grave
Tracknumber=2
Year=2022-02-18
Genre=Metal
Discnumber=1



Register


Go to the top of the page
  Insert nick Quick quote
+Quote Post
 
Start new topic
Replies (1 - 1)
post Feb 17 2022, 13:51:50
Post #2

Morbid Angel
**************
Group: Металариец
Posts: 4,191
Releases: 0
From: Литва г.Клайпеда
On Forums: 16 years 11 months
Thanks: 1835 time(s)
Lithuania




Thanks:
(1) Occultas,
Go to the top of the page
  Insert nick Quick quote
+Quote Post

Reply to this topicStart new topic
1 User(s) are reading this topic (1 Guests and 0 Anonymous Users)
0 Members:

 



- Lo-Fi Version Support form
Copyrights and abuse reports form
Time is now: 5th March 2024 - 12:21:02