Welcome Guest ( Log In | Register )

> Omnioid - 22022022 (2022), Brutal Death Metal (D5)
post Feb 17 2022, 12:54:38
Post #1

Маньяк
**********
Group: Металариец
Posts: 1,094
Releases: 934
On Forums: 2 years 10 months
Thanks: 25433 time(s)
United States


(IMG:https://metalarea.org/images/audiocovers/2022_Feb/acov_tid361611_thumb.jpg)

*Artist: Omnioid
*Album: 22022022
*Year: 2022
*Genre: Brutal Death Metal
*Country: Australia (IMG:https://metalarea.org/forum/style_images/flags/Australia.png)
*Format: mp3@CBR320kbps
*Size: 122MB

Tracklist:
01. Aphotic Horizon
02. Necrostatic Consciousness
03. Fusing Tri-nominal Axions
04. Synthetic Sensorium
05. Folding The Apex Of Infinity
06. Hectaradial Subvoid
07. Designed Through Immaculate Enthropy
08. Hex Dimensional Paralysis
09. Prelude To The Erased
10. Automating Futile Events
11. Navigating The Binary Catacombs
12. Distorted Nostalgia
13. Re-animation In Reverse
14. Ephemeral Divinity
******************************
Total playing time: 48:26



Technical info
(IMG:https://metalarea.org/images/spectrogram/2022_Feb/9dc5be8953d66860c23392b41997c67b.png)
Input File: 02. Necrostatic Consciousness.mp3
Channels : 2
Sample Rate : 44100
Precision : 16-bit
Duration : 00:02:50.23 = 7506967 samples = 12767 CDDA sectors
File Size : 7.06M
Bit Rate : 332k
Sample Encoding: MPEG audio (layer I, II or III)
Comments :
Title=Necrostatic Consciousness
Artist=Omnioid
Album=22022022
Tracknumber=2/14
Year=2022
Discnumber=1/1



Register


Go to the top of the page
  Insert nick Quick quote
+Quote Post
 
Start new topic
Replies (1 - 1)
post Feb 17 2022, 13:52:03
Post #2

Пять Литров
*****
Group: Металариец
Posts: 429
Releases: 39
From: Київ
On Forums: 14 years 11 months
Thanks: 902 time(s)
Ukraine




Go to the top of the page
  Insert nick Quick quote
+Quote Post

Reply to this topicStart new topic
1 User(s) are reading this topic (1 Guests and 0 Anonymous Users)
0 Members:

 



- Lo-Fi Version Support form
Copyrights and abuse reports form
Time is now: 3rd March 2024 - 07:50:09