Welcome Guest ( Log In | Register )

 
Reply to this topicStart new topic
> Agathocles & Ur-In-Stinkt - Silence/Ur-In-Stinkt [split] (2021), Grindcore | Blackened Grindcore/Crust (D)
post Feb 18 2022, 04:58:41
Post #1

Правь статус, ####!111
**************
Group: Металариец
Posts: 4,801
Releases: 3231
On Forums: 12 years 2 months
Thanks: 58162 time(s)
Russian Federation


(IMG:https://metalarea.org/images/audiocovers/2022_Feb/acov_tid361654_thumb.jpg)

*Artist: Agathocles & Ur-In-Stinkt
*Album: Silence/Ur-In-Stinkt [split]
*Year: 2021
*Genre: Grindcore | Blackened Grindcore/Crust
*Country: Belgium (IMG:https://metalarea.org/forum/style_images/flags/Belgium.png) | Germany (IMG:https://metalarea.org/forum/style_images/flags/Germany.png)
*Format: mp3@CBR320kbps
*Size: 27MB

Tracklist:
Agathocles:
1.No Use - Hatred / Anarchist Spectrum Disorder / Kill Thrill / Is It Really Mine? 05:40
Ur-In-Stinkt :
2.Parasite of the Black Hole / Boneshaker / Das Kaleidoskop 06:03
******************************
Total playing time: 11:43



Technical info
(IMG:https://metalarea.org/images/spectrogram/2022_Feb/25f3b5fbd9de019f55a022d16b20ae15.png)
Input File: 01. Hatred , Anarchist Spectrum Disorder , Kill Thrill , is it Really Mine!.mp3
Channels : 2
Sample Rate : 44100
Precision : 16-bit
Duration : 00:05:40.32 = 15008068 samples = 25523.9 CDDA sectors
File Size : 13.6M
Bit Rate : 320k
Sample Encoding: MPEG audio (layer I, II or III)
Comments :
Title=Hatred / Anarchist Spectrum Disorder / Kill Thrill / is it Really Mine?
Artist=Agathocles
Album=Agathocles / Ur-In-Stinkt - Split
Tracknumber=01
Year=2021
Genre=Mincecore



Register


Go to the top of the page
  Insert nick Quick quote
+Quote Post

Reply to this topicStart new topic
1 User(s) are reading this topic (1 Guests and 0 Anonymous Users)
0 Members:

 



- Lo-Fi Version Support form
Copyrights and abuse reports form
Time is now: 4th February 2023 - 17:15:56