Welcome Guest ( Log In | Register )

Объявления

* gmail.com упорно продолжает считать почту с нас "unsolicited" и отбивает в том числе и письма активации, поэтому просьба использовать альтернативные почтовые ящики.
------------
* gmail.com continues reject all mail from us as "unsolicited" (activation mails too) therefore please use alternate mail servers.

> Forum rules / Правила раздела

Here go releases which can't go to New releases forums due lack of information, stolen links or incorrect data and just founded in other sites links with minimum info. Reissue of this releases through Add release form with added/corrected data, info and own links highly welcomed.

Сюда уходят релизы, не пропущенные в основные релизные форумы по причинам отсутствия, недостаточности или неверности/некорректности сопровождающей информации, содержащие ссылки, указывающие на файлы, залитые не автором темы, а так же просто найденные где-то ссылки с минимумом информации. Переоформление тем отсюда через форму Добавления релиза с перезаливкой ссылок крайне приветствуется.

Причина закрытия (sacrut 10-05-2022): duplicate
 
Closed TopicStart new topic
> Esbbat & Shadows Hell - Reverência: A Feitiçaria Do Sul [split] (2021), Black Metal | Black Metal (D9)
post Feb 22 2022, 03:44:19
Post #1

Absorbence
**************
Group: Металариец
Posts: 2,599
Releases: 706
From: Vastland Abyss of Cthulhu
On Forums: 17 years 8 months
Thanks: 11794 time(s)
United States


(IMG:https://metalarea.org/images/audiocovers/2022_Feb/acov_tid361791_thumb.jpg)

*Artist: Esbbat & Shadows Hell
*Album: Reverência: A Feitiçaria Do Sul [split]
*Year: 2021
*Genre: Black Metal | Black Metal
*Country: Colombia (IMG:https://metalarea.org/forum/style_images/flags/Colombia.png) | Brazil (IMG:https://metalarea.org/forum/style_images/flags/Brazil.png)
*Format: mp3@VBR275kbps
*Size: 117MB

Tracklist:
01. Esbbat - Se Oscuridad 05:09
02. Esbbat - Nada es Real 08:48
03. Esbbat - Hombres sin Alma 06:04
04. Esbbat - Esclavitud Eterna 03:42
05. Esbbat - Despertando de Entre los Muertos 04:19
06. Shadows Hell - Escuridπo (A Dor e o Sofrimento Serπo Eternos) 07:44
07. Shadows Hell - Maldita Raτa Humana 05:30
08. Shadows Hell - Marcha Imperial para Hantsoseth 06:14
09. Shadows Hell - Haphet 05:54
10. Shadows Hell - Viagem Astral 04:20
******************************
Total playing time: 57:44


 i 

Пример правильного оформления треклиста для сплитов Christ Desecration & Donut Lord & Guhtika - Segtanic Metal Attack Vol. 2 [split] (2022)
 


Essbat @ Youtube
Shadows Hell @ Youtube

Extended info
Labal: Black Seal Prod.


Technical info
(IMG:https://metalarea.org/images/spectrogram/2022_Feb/6d1e8503712bb7f64e744bdcf4c7ecfe.png)
Input File: 02. Esbbat - Nada es Real.mp3
Channels : 2
Sample Rate : 44100
Precision : 16-bit
Duration : 00:08:48.35 = 23300323 samples = 39626.4 CDDA sectors
File Size : 17.5M
Bit Rate : 265k
Sample Encoding: MPEG audio (layer I, II or III)
Comments :
Title=Nada es Real
Artist=Esbbat
Album=Reverência: A Feitiçaria do Sul
Tracknumber=02/10
Year=2021
Genre=138



Register


Go to the top of the page
  Insert nick Quick quote
+Quote Post

Причина закрытия (sacrut 10-05-2022): duplicate
Closed TopicStart new topic
1 User(s) are reading this topic (1 Guests and 0 Anonymous Users)
0 Members:

 



- Lo-Fi Version Support form
Copyrights and abuse reports form
Time is now: 14th July 2024 - 15:29:03