Welcome Guest ( Log In | Register )

Объявления

* gmail.com упорно продолжает считать почту с нас "unsolicited" и отбивает в том числе и письма активации, поэтому просьба использовать альтернативные почтовые ящики.
------------
* gmail.com continues reject all mail from us as "unsolicited" (activation mails too) therefore please use alternate mail servers.

> И неформату есть предел.

Рэп/хип-хоп/шансон/поп удаляются. Для них есть свои порталы.

 
Reply to this topicStart new topic
> Dying Passion - Skylor (2022), Alternative Rock (D9)
post Feb 22 2022, 17:57:38
Post #1

Правь статус, ####!111
**************
Group: Металариец
Posts: 7,619
Releases: 6969
From: Одесса
On Forums: 16 years 2 weeks
Thanks: 81286 time(s)
Ukraine


(IMG:http://metalarea.org/images/audiocovers/2022_Feb/acov_tid361801_thumb.jpg)

*Artist: Dying Passion
*Album: Skylor
*Year: 2022
*Genre: Alternative Rock
*Country: Czech Republic (IMG:http://metalarea.org/forum/style_images/flags/Czech%20Republic.png)
*Format: mp3@CBR320kbps
*Size: 125MB

Tracklist:
1. Search 04:45
2. Aerosouls 03:59
3. In The Code 05:52
4. Shadowplay 04:10
5. Today 03:32
6. Skylor 04:32
7. Breakwater 05:15
8. On The Edge 04:36
9. Round and Round 04:52
10. Another Kind of Light 05:40
11. Breathe 05:43
******************************
Total playing time: 52:56



Extended info
Line - up:

Jan Kylar - Drums
Pavel Vantuch - Keyboards
Stanislav Jelínek - Guitars, Vocals (harsh)
Zuzana Jelínková - Vocals (lead)
Stanislav Tögel - Guitars
Jan Stinka - Bass (Lobotomia, Return to Innocence, ex-Et Moriemur, ex-Ameth)


Technical info
(IMG:http://metalarea.org/images/spectrogram/2022_Feb/c1dc8ba15c3d6c59c2e813c4db2d5fe3.png)
Input File: 11. Breathe.mp3
Channels : 2
Sample Rate : 44100
Precision : 16-bit
Duration : 00:05:44.00 = 15170488 samples = 25800.1 CDDA sectors
File Size : 13.8M
Bit Rate : 320k
Sample Encoding: MPEG audio (layer I, II or III)
Comments :
Title=Breathe
Artist=Dying Passion
Album=Skylor
Tracknumber=11
Year=2022
Genre=Alternative Rock



Register


Go to the top of the page
  Insert nick Quick quote
+Quote Post

Reply to this topicStart new topic
1 User(s) are reading this topic (1 Guests and 0 Anonymous Users)
0 Members:

 



- Lo-Fi Version Support form
Copyrights and abuse reports form
Time is now: 18th June 2024 - 15:36:39