Welcome Guest ( Log In | Register )

Объявления

* gmail.com упорно продолжает считать почту с нас "unsolicited" и отбивает в том числе и письма активации, поэтому просьба использовать альтернативные почтовые ящики.
------------
* gmail.com continues reject all mail from us as "unsolicited" (activation mails too) therefore please use alternate mail servers.
> Venator - Echoes From The Gutter (2022), Heavy Metal (D4)
post Feb 24 2022, 15:27:18
Post #1

Маньяк
**********
Group: Металариец
Posts: 1,094
Releases: 934
On Forums: 2 years 11 months
Thanks: 25482 time(s)
United States


(IMG:http://metalarea.org/images/audiocovers/2022_Feb/acov_tid361876_thumb.jpg)

*Artist: Venator
*Album: Echoes From The Gutter
*Year: 2022
*Genre: Heavy Metal
*Country: Austria (IMG:http://metalarea.org/forum/style_images/flags/Austria.png)
*Format: mp3@CBR320kbps
*Size: 113MB

Tracklist:
01. Howl At The Rain 05:05
02. Seventh Seal 06:17
03. Red And Black 04:52
04. Nightrider 06:01
05. Manic Man 04:39
06. Made Of Light 03:53
07. The Rising 04:39
08. The Hexx 04:42
09. Streets Of Gold 05:54
******************************
Total playing time: 46:02



Technical info
(IMG:http://metalarea.org/images/spectrogram/2022_Feb/b65aebad94d4a3db4624ea95ab1c1ef7.png)
Input File: 02. The Seventh Seal.mp3
Channels : 2
Sample Rate : 44100
Precision : 16-bit
Duration : 00:06:17.23 = 16635931 samples = 28292.4 CDDA sectors
File Size : 15.3M
Bit Rate : 324k
Sample Encoding: MPEG audio (layer I, II or III)
Comments :
Title=The Seventh Seal
Artist=Venator
Album=Echoes From The Gutter
Tracknumber=02/09
Year=2022
Genre=Heavy Metal
Discnumber=1/1



Register


Go to the top of the page
  Insert nick Quick quote
+Quote Post
 
Start new topic
Replies (1 - 4)
post Feb 24 2022, 16:52:38
Post #2

Правь статус, ####!111
**************
Group: Металариец
Posts: 55,796
Releases: 1189
On Forums: 14 years 10 months
Thanks: 54545 time(s)
Russian Federation


С такой олдскульной обложкой ожидаю дико угарный нафталин метал.
Go to the top of the page
  Insert nick Quick quote
+Quote Post
post Apr 4 2022, 17:05:09
Post #3

Маньяк
**********
Group: Металариец
Posts: 1,192
Releases: 0
From: Isla de Margarita, Venezuela
On Forums: 5 years 3 months
Thanks: 375 time(s)
Venezuela


"Seventh Seal" (IMG:style_emoticons/default/20.gif)
Go to the top of the page
  Insert nick Quick quote
+Quote Post
post Apr 22 2022, 05:09:46
Post #4

i listen to black metal
**************
Group: Металариец
Posts: 4,063
Releases: 150
From: Москва
On Forums: 17 years 4 months
Thanks: 2627 time(s)
Russian Federation


под такую музыку в американских фильмах старых девки пляшут
Go to the top of the page
  Insert nick Quick quote
+Quote Post
post Oct 12 2023, 16:39:42
Post #5

Три Литра
***
Group: Завсегдатай
Posts: 289
Releases: 0
On Forums: 6 years 4 months
Thanks: 118 time(s)
Russian Federation


На удивление годный альбом. Такого хэви нынче уж и днём с огнём почти не сыщешь.
Go to the top of the page
  Insert nick Quick quote
+Quote Post

Reply to this topicStart new topic
1 User(s) are reading this topic (1 Guests and 0 Anonymous Users)
0 Members:

 



- Lo-Fi Version Support form
Copyrights and abuse reports form
Time is now: 23rd April 2024 - 15:49:36