Welcome Guest ( Log In | Register )

> Nietzu - Farewell To The Stranger (2022), Atmospheric/Post-Black Metal (D7)
post Feb 25 2022, 22:31:38
Post #1

Правь статус, ####!111
**************
Group: Металариец
Posts: 30,923
Releases: 22794
From: Г.Харьков
On Forums: 10 years 6 months
Thanks: 477015 time(s)
Unknown


(IMG:http://metalarea.org/images/audiocovers/2022_Feb/acov_tid361952_thumb.jpg)

*Artist: Nietzu
*Album: Farewell To The Stranger
*Year: 2022
*Genre: Atmospheric/Post-Black Metal
*Country: United Kingdom (IMG:http://metalarea.org/forum/style_images/flags/United%20Kingdom.png)
*Format: mp3@CBR320kbps
*Size: 104MB

Tracklist:
1. Lichgate 04:11
2. Hypothermia 03:04
3. Wax and Laudanum 02:27
4. Lanterns for Wræclastas 04:10
5. Pavor Nocturnus 03:53
6. Grief Under the Dule Tree 03:23
7. Cracked Earth 01:38
8. A Loveless Routine 03:36
9. Pale Rain of the West Wind 05:03
10. Hovel Heraldry 02:50
11. Exhumed 04:14
12. The Subtle Body 03:36
13. Beggar 02:39
******************************
Total playing time: 44:44




Extended info
Bandcamp


Technical info
(IMG:http://metalarea.org/images/spectrogram/2022_Feb/19bc0cf9b55cab4840c26e2a2b34f8b3.png)
Input File: Nietzu - Farewell to the Stranger - 09 Pale Rain of the West Wind.mp3
Channels : 2
Sample Rate : 44100
Precision : 16-bit
Duration : 00:05:03.61 = 13389245 samples = 22770.8 CDDA sectors
File Size : 12.3M
Bit Rate : 324k
Sample Encoding: MPEG audio (layer I, II or III)
Comments :
Title=Pale Rain of the West Wind
Artist=Nietzu
Album=Farewell to the Stranger
Tracknumber=9
Year=2022



Register


Go to the top of the page
  Insert nick Quick quote
+Quote Post
 
Start new topic
Replies (1 - 1)
post Feb 27 2022, 08:23:44
Post #2

Четыре Литра
****
Group: Металариец
Posts: 373
Releases: 0
From: TheМля
On Forums: 16 years 2 months
Thanks: 128 time(s)
Belarus


Атмосферик поп. ВоКал как у пет шоп бойз, ну и в подвале записано. В топ года.


Thanks:
Go to the top of the page
  Insert nick Quick quote
+Quote Post

Reply to this topicStart new topic
2 User(s) are reading this topic (2 Guests and 0 Anonymous Users)
0 Members:

 



- Lo-Fi Version Support form
Copyrights and abuse reports form
Time is now: 3rd December 2022 - 17:33:35