Welcome Guest ( Log In | Register )

> The Defaced - Charlatans (2022), Groove/Thrash Metal (D4)
post Mar 3 2022, 11:41:18
Post #1

Serial Uploader
Group Icon
Group: V.I.P
Posts: 39,288
Releases: 37423
From: Lithuania
On Forums: 14 years 5 months
Thanks: 469128 time(s)
Lithuania


(IMG:https://metalarea.org/images/audiocovers/2022_Mar/acov_tid362085_thumb.jpg)

*Artist: The Defaced
*Album: Charlatans
*Year: 2022
*Genre: Groove/Thrash Metal
*Country: Sweden (IMG:https://metalarea.org/forum/style_images/flags/Sweden.png)
*Format: mp3@CBR320kbps
*Size: 100MB

Tracklist:
1. Monochromatic Void
2. Bleeding Ore
3. Charlatan
4. Celestial Display
5. Gilded Hands
6. Son of the Sun
7. Wreck
8. Enter the Stage
9. Fangs
10. No More Diamonds
******************************
Total playing time: 43:28


Preview 2
(IMG:https://metalarea.org/images/youtube.png)

Technical info
(IMG:https://metalarea.org/images/spectrogram/2022_Mar/bdbb36bcb477ce006384e0a652852a8c.png)
Input File: 04 - Celestial Display.mp3
Channels : 2
Sample Rate : 44100
Precision : 16-bit
Duration : 00:04:32.00 = 11995200 samples = 20400 CDDA sectors
File Size : 11.0M
Bit Rate : 324k
Sample Encoding: MPEG audio (layer I, II or III)
Comments :
Title=Celestial Display
Artist=The Defaced
Album=Charlatans
Tracknumber=4
Year=2022-03-04
Genre=Metal
Discnumber=1



Register


Go to the top of the page
  Insert nick Quick quote
+Quote Post
 
Start new topic
Replies (1 - 3)
post Mar 3 2022, 19:31:15
Post #2

Тридцать три года на борту "тяжёлого" крейсера
**************
Group: Металариец
Posts: 2,962
Releases: 0
From: Питер
On Forums: 15 years 5 months
Thanks: 938 time(s)
Russian Federation


Хороший альбом!
Go to the top of the page
  Insert nick Quick quote
+Quote Post
post Sep 15 2022, 21:41:45
Post #3

Правь статус, ####!111
**************
Group: Металариец
Posts: 4,189
Releases: 1
From: Рейх
On Forums: 16 years 3 months
Thanks: 1015 time(s)
Ukraine


обновить
Go to the top of the page
  Insert nick Quick quote
+Quote Post
post Sep 20 2022, 13:21:13
Post #4

Добрый
**************
Group: Металариец
Posts: 5,618
Releases: 0
On Forums: 4 years 4 months
Thanks: 16710 time(s)
Russian Federation


101 mb/320 kbps
Register


Thanks:
Go to the top of the page
  Insert nick Quick quote
+Quote Post

Reply to this topicStart new topic
2 User(s) are reading this topic (2 Guests and 0 Anonymous Users)
0 Members:

 



- Lo-Fi Version Support form
Copyrights and abuse reports form
Time is now: 27th November 2022 - 03:26:35