Welcome Guest ( Log In | Register )

Объявления

* gmail.com упорно продолжает считать почту с нас "unsolicited" и отбивает в том числе и письма активации, поэтому просьба использовать альтернативные почтовые ящики.
------------
* gmail.com continues reject all mail from us as "unsolicited" (activation mails too) therefore please use alternate mail servers.
> Sanhedrin - Lights On (2022), Heavy Metal (D7)
post Mar 3 2022, 12:31:52
Post #1

Serial Uploader
Group Icon
Group: V.I.P
Posts: 42,413
Releases: 40482
From: Lithuania
On Forums: 15 years 10 months
Thanks: 517423 time(s)
Lithuania


(IMG:https://metalarea.org/images/audiocovers/2022_Mar/acov_tid362087_thumb.jpg)

*Artist: Sanhedrin
*Album: Lights On
*Year: 2022
*Genre: Heavy Metal
*Country: United States (IMG:https://metalarea.org/forum/style_images/flags/United%20States.png)
*Format: mp3@CBR320kbps
*Size: 99MB

Tracklist:
1. Correction 04:08
2. Lights On 04:58
3. Lost at Sea 04:27
4. Change Takes Forever 04:55
5. Code Blue 06:38
6. Scythian Women 03:20
7. Hero's End 05:33
8. Death Is a Door 07:04
******************************
Total playing time: 41:03


Preview 2

(IMG:https://metalarea.org/images/youtube.png)

Technical info
(IMG:https://metalarea.org/images/spectrogram/2022_Mar/a2d63b333cec43b4fa15515be6fad54a.png)
Input File: 02 - Lights On.mp3
Channels : 2
Sample Rate : 44100
Precision : 16-bit
Duration : 00:04:58.00 = 13141800 samples = 22350 CDDA sectors
File Size : 12.2M
Bit Rate : 328k
Sample Encoding: MPEG audio (layer I, II or III)
Comments :
Title=Lights On
Artist=Sanhedrin
Album=Lights On
Tracknumber=2
Year=2022-03-04
Discnumber=1



Register


Go to the top of the page
  Insert nick Quick quote
+Quote Post
 
Start new topic
Replies (1 - 1)
post Mar 3 2022, 18:02:06
Post #2

Мегаманьяк
***********
Group: Металариец
Posts: 1,799
Releases: 0
From: Russian Federation - St.Petersburg
On Forums: 15 years 1 month
Thanks: 517 time(s)
Russian Federation


Прям Сюзи-Кватра! (IMG:style_emoticons/default/17.gif) (IMG:style_emoticons/default/1488.gif)
Go to the top of the page
  Insert nick Quick quote
+Quote Post

Reply to this topicStart new topic
1 User(s) are reading this topic (1 Guests and 0 Anonymous Users)
0 Members:

 



- Lo-Fi Version Support form
Copyrights and abuse reports form
Time is now: 23rd April 2024 - 15:41:43