Welcome Guest ( Log In | Register )

> Hath - All That Was Promised (2022), Progressive Blackened Death Metal
post Mar 3 2022, 12:58:06
Post #1

Serial Uploader
Group Icon
Group: V.I.P
Posts: 39,314
Releases: 37449
From: Lithuania
On Forums: 14 years 5 months
Thanks: 469458 time(s)
Lithuania


(IMG:https://metalarea.org/images/audiocovers/2022_Mar/acov_tid362090_thumb.jpg)

*Artist: Hath
*Album: All That Was Promised
*Year: 2022
*Genre: Progressive Blackened Death Metal
*Country: United States (IMG:https://metalarea.org/forum/style_images/flags/United%20States.png)
*Format: mp3@CBR320kbps
*Size: 122MB

Tracklist:
1. The Million Violations 05:24
2. Kenosis 05:48
3. Lithopaedic 04:56
4. Iosis 05:49
5. Decollation 06:18
6. Death Complex 05:46
7. Casting of the Self 05:49
8. All That Was Promised 05:08
9. Name Them Yet Build No Monument 06:38
******************************
Total playing time: 51:36


Preview 2


Technical info
(IMG:https://metalarea.org/images/spectrogram/2022_Mar/5f5ce9b190798ea8f69c81a47f5444d0.png)
Input File: 02. Kenosis.mp3
Channels : 2
Sample Rate : 44100
Precision : 16-bit
Duration : 00:05:48.00 = 15346800 samples = 26100 CDDA sectors
File Size : 14.2M
Bit Rate : 326k
Sample Encoding: MPEG audio (layer I, II or III)
Comments :
Title=Kenosis
Artist=Hath
Album=All That Was Promised
Tracknumber=2
Year=2022
Genre=Progressive Black/Death
Discnumber=1



Register


Go to the top of the page
  Insert nick Quick quote
+Quote Post
 
Start new topic
Replies (1 - 7)
post Mar 3 2022, 22:10:27
Post #2

Group: Подсевший
Posts: 32
Releases: 0
On Forums: 2 years 9 months
Thanks: 22 time(s)
Czech Republic


Amazing album. Complex, yet catchy. Bought it on Bandcamp, thank you for the preview.
Go to the top of the page
  Insert nick Quick quote
+Quote Post
post Mar 7 2022, 15:07:48
Post #3

Death Metal Warfare
**************
Group: Металариец
Posts: 2,895
Releases: 78
From: Technical Death из 90-х
On Forums: 12 years 4 months
Thanks: 7878 time(s)
Unknown




Thanks:
Go to the top of the page
  Insert nick Quick quote
+Quote Post
post Mar 13 2022, 15:56:15
Post #4

Old School Metal
**************
Group: Металариец
Posts: 4,635
Releases: 0
From: г. Минск
On Forums: 13 years 8 months
Thanks: 12599 time(s)
Belarus


Lossless: FLAC (tracks)
Register


Go to the top of the page
  Insert nick Quick quote
+Quote Post
post Mar 27 2022, 20:47:31
Post #5

мизантроп же
**********
Group: Металариец
Posts: 1,238
Releases: 8
From: Москва
On Forums: 15 years 8 months
Thanks: 1223 time(s)
Russian Federation


Очень хорошо и своеобразно, до конца пока не дослушал. 5 и 6 треки хороши. Я эту банду еще в 2019-м приметил, здорово играют)


Thanks:
Go to the top of the page
  Insert nick Quick quote
+Quote Post
post Apr 3 2022, 18:52:26
Post #6

Group: Подсевший
Posts: 10
Releases: 0
On Forums: 13 years 9 months
Thanks: 0 time(s)
Aruba


Thank you very much. Amazing album.
Go to the top of the page
  Insert nick Quick quote
+Quote Post
post May 3 2022, 10:47:37
Post #7

Пять Литров
*****
Group: Металариец
Posts: 403
Releases: 0
From: Самара
On Forums: 1 year 7 months
Thanks: 222 time(s)
Russian Federation


Альбомец явно поживее нового Allegaeon'а. Тяжелеё, жёстче, дэтовей, хотя сам по себе скорее разивает атмосферную составляющую жанра, нежели мясную. Прогрессивная составляющая присутствует, но не вылезает на передний план, давая разгуляться экстримальному урагану, но всё же при внимательном изучении начинает слегка отсвечивать в комплексных песенных структурах и гитарных соло. В целом шпарит хорошо от начала до конца и не разменивается на "глыбину" и "чуйственность" с приторно мелодичными отрезками, позорящими суть выраженного мелодизма, который я одобряю, но не всегда и не везде (и точно не в злом дэте), однако в одном месте таки пробрался на бэк-вокал гаденький чистый тенорок. Но дальше одной капельки дёгтя таки не заходит, хвала небесам.
Хороший альбом.


Thanks:
Go to the top of the page
  Insert nick Quick quote
+Quote Post
post Aug 25 2022, 09:48:05
Post #8

Шесть Литров
******
Group: Металариец
Posts: 577
Releases: 0
From: Isla de Margarita, Venezuela
On Forums: 3 years 10 months
Thanks: 125 time(s)
Venezuela


320kps (131MB)

Register


Thanks:
Go to the top of the page
  Insert nick Quick quote
+Quote Post

Reply to this topicStart new topic
1 User(s) are reading this topic (1 Guests and 0 Anonymous Users)
0 Members:

 



- Lo-Fi Version Support form
Copyrights and abuse reports form
Time is now: 3rd December 2022 - 00:02:46