Welcome Guest ( Log In | Register )

> Gorebringer - Terrified Beyond Measure (2022), Melodic Death Metal
post Mar 3 2022, 13:53:13
Post #1

Serial Uploader
Group Icon
Group: V.I.P
Posts: 38,972
Releases: 37108
From: Lithuania
On Forums: 14 years 3 months
Thanks: 463721 time(s)
Lithuania


(IMG:https://metalarea.org/images/audiocovers/2022_Mar/acov_tid362096_thumb.jpg)

*Artist: Gorebringer
*Album: Terrified Beyond Measure
*Year: 2022
*Genre: Melodic Death Metal
*Country: United Kingdom (IMG:https://metalarea.org/forum/style_images/flags/United%20Kingdom.png)
*Format: mp3@CBR320kbps
*Size: 79MB

Tracklist:
01. The Bottomless Pit 04:06
02. Man to Beast 04:49
03. Terrified Beyond Measure 05:49
04. The Evil Ones 04:25
05. Moon Circle 00:59
06. A Blackened Circle 04:47
07. Necro Mess 03:38
08. Flesh Feast 05:45
******************************
Total playing time: 34:18




Technical info
(IMG:https://metalarea.org/images/spectrogram/2022_Mar/835eb216a4c33d0f327cc56ddb392b13.png)
Input File: 02. Man to Beast.mp3
Channels : 2
Sample Rate : 44100
Precision : 16-bit
Duration : 00:04:49.00 = 12744900 samples = 21675 CDDA sectors
File Size : 11.7M
Bit Rate : 324k
Sample Encoding: MPEG audio (layer I, II or III)
Comments :
Title=Man to Beast
Artist=Gorebringer
Album=Terrified Beyond Measure
Tracknumber=2
Year=2022
Discnumber=1



Register


Go to the top of the page
  Insert nick Quick quote
+Quote Post
 
Start new topic
Replies (1 - 8)
post Mar 4 2022, 21:36:06
Post #2
BAN
Banned till
Nov 18 2022, 15:58:31



Серьезный такой мелодик (IMG:style_emoticons/default/15.gif)
Go to the top of the page
  Insert nick Quick quote
+Quote Post
post Mar 5 2022, 15:55:49
Post #3

Семь Литров
*******
Group: Металариец
Posts: 771
Releases: 0
From: Лыткарино
On Forums: 3 years 4 months
Thanks: 204 time(s)
Russian Federation


Маловразумительная ерунда.


Thanks:
(1) WOLAND,
Go to the top of the page
  Insert nick Quick quote
+Quote Post
post Mar 5 2022, 20:36:20
Post #4

Четыре Литра
****
Group: Металариец
Posts: 380
Releases: 1
On Forums: 15 years 5 months
Thanks: 37 time(s)
Russian Federation


ЦИТАТА(WOLAND @ 4th March 2022 - 23:36:06) *
Серьезный такой мелодик

мелодик симфоник оператик грайндкор! шутка. перед употреблением сжечь.


Thanks:
(1) WOLAND,
Go to the top of the page
  Insert nick Quick quote
+Quote Post
post Mar 14 2022, 09:21:39
Post #5

к приему виски готов
*********
Group: Металариец
Posts: 914
Releases: 3
From: Украина
On Forums: 13 years 7 months
Thanks: 542 time(s)
Ukraine


а мне понравилось, весело, бодро, с кучей соляков.


Thanks:
(1) Andrew,
Go to the top of the page
  Insert nick Quick quote
+Quote Post
post Mar 20 2022, 20:11:50
Post #6

MDM-Thrash Metal
**************
Group: Металариец
Posts: 11,392
Releases: 1585
From: Одесса
On Forums: 15 years 1 month
Thanks: 37452 time(s)
Ukraine


ЦИТАТА(скептик @ Mar 14 2022, 12:21:39) *
а мне понравилось, весело, бодро, с кучей соляков.

Мне так же зашло. Для ознакомления - вполне.


Thanks:
Go to the top of the page
  Insert nick Quick quote
+Quote Post
post Mar 26 2022, 18:33:02
Post #7

к приему виски готов
*********
Group: Металариец
Posts: 914
Releases: 3
From: Украина
On Forums: 13 years 7 months
Thanks: 542 time(s)
Ukraine


ЦИТАТА(Andrew @ Mar 20 2022, 23:11:50) *
Мне так же зашло. Для ознакомления - вполне.

смотрю, вкусы у нас частенько сходятся, буду следить за Тобой (IMG:style_emoticons/default/18.gif) (IMG:style_emoticons/default/9.gif)
PS Ха, еще и из Одессы, я там родился и прожил 3 несознательных года жизни +десяток летних сезонов (IMG:style_emoticons/default/crazy.gif)


Thanks:
(1) Andrew,
Go to the top of the page
  Insert nick Quick quote
+Quote Post
post May 15 2022, 11:10:25
Post #8

Old School Metal
**************
Group: Металариец
Posts: 4,590
Releases: 0
From: г. Минск
On Forums: 13 years 6 months
Thanks: 12290 time(s)
Belarus


Lossless: FLAC (tracks)
Register


Thanks:
Go to the top of the page
  Insert nick Quick quote
+Quote Post
post May 15 2022, 11:26:12
Post #9

Четыре Литра
****
Group: Металариец
Posts: 351
Releases: 0
From: Калуга
On Forums: 4 years 8 months
Thanks: 116 time(s)
Russian Federation


Go to the top of the page
  Insert nick Quick quote
+Quote Post

Reply to this topicStart new topic
1 User(s) are reading this topic (1 Guests and 0 Anonymous Users)
0 Members:

 



- Lo-Fi Version Support form
Copyrights and abuse reports form
Time is now: 3rd October 2022 - 10:09:00