Welcome Guest ( Log In | Register )

> Non Est Deus - Impious (2022), Black Metal
post Mar 3 2022, 16:42:06
Post #1

Serial Uploader
Group Icon
Group: V.I.P
Posts: 39,314
Releases: 37449
From: Lithuania
On Forums: 14 years 5 months
Thanks: 469550 time(s)
Lithuania


(IMG:https://metalarea.org/images/audiocovers/2022_Mar/acov_tid362104_thumb.jpg)

*Artist: Non Est Deus
*Album: Impious
*Year: 2022
*Genre: Black Metal
*Country: Germany (IMG:https://metalarea.org/forum/style_images/flags/Germany.png)
*Format: mp3@CBR320kbps
*Size: 91MB

Tracklist:
01. Save Us 04:30
02. Burn It Down 05:43
03. Fuck Your God 03:30
04. Hexenwahn 06:43
05. Flagellation 04:15
06. Christraping Polka 04:38
07. Celebrate the Selfdestruct 03:35
08. The Ascension 06:13
******************************
Total playing time: 39:07


(IMG:https://metalarea.org/images/youtube.png)

Technical info
(IMG:https://metalarea.org/images/spectrogram/2022_Mar/707d2bab1fbd980f670882a4995b9f67.png)
Input File: 02 - Burn It Down.mp3
Channels : 2
Sample Rate : 44100
Precision : 16-bit
Duration : 00:05:43.00 = 15126300 samples = 25725 CDDA sectors
File Size : 13.9M
Bit Rate : 324k
Sample Encoding: MPEG audio (layer I, II or III)
Comments :
Title=Burn It Down
Artist=Non Est Deus
Album=Impious
Tracknumber=2
Year=2022-03-04
Genre=Metal
Discnumber=1



Register


Go to the top of the page
  Insert nick Quick quote
+Quote Post
 
Start new topic
Replies (1 - 5)
post Mar 11 2022, 11:23:45
Post #2

Четыре Литра
****
Group: Металариец
Posts: 373
Releases: 0
From: TheМля
On Forums: 16 years 2 months
Thanks: 128 time(s)
Belarus


Нормально. В меру мелодично. Без откровений, но зашло.


Thanks:
(1) sabr,
Go to the top of the page
  Insert nick Quick quote
+Quote Post
post Mar 11 2022, 11:28:13
Post #3

Семь Литров
*******
Group: Металариец
Posts: 745
Releases: 0
From: Vilnius
On Forums: 15 years 9 months
Thanks: 267 time(s)
Lithuania


полностью согласен с предыдущим оратором. Врятли останется в коллекции, но пару раз можно прослушать
Go to the top of the page
  Insert nick Quick quote
+Quote Post
post Aug 17 2022, 01:40:58
Post #4

Absorbence
**************
Group: Металариец
Posts: 2,159
Releases: 438
From: Vastland Abyss of Cthulhu
On Forums: 16 years 3 weeks
Thanks: 7516 time(s)
United States


file was deleted
Go to the top of the page
  Insert nick Quick quote
+Quote Post
post Oct 14 2022, 13:02:17
Post #5

Group: Дух
Posts: 5
Releases: 0
From: Москва
On Forums: 3 years 1 month
Thanks: 0 time(s)
Russian Federation


Кто может выложить на обменник? А то ссылки протухли
Go to the top of the page
  Insert nick Quick quote
+Quote Post
post Oct 15 2022, 12:12:37
Post #6

Group: Подсевший
Posts: 29
Releases: 0
On Forums: 2 years 11 months
Thanks: 4 time(s)
Russian Federation


https://disk.yandex.ru/d/qalPM3M8Q970Yg
Go to the top of the page
  Insert nick Quick quote
+Quote Post

Reply to this topicStart new topic
2 User(s) are reading this topic (2 Guests and 0 Anonymous Users)
0 Members:

 



- Lo-Fi Version Support form
Copyrights and abuse reports form
Time is now: 3rd December 2022 - 18:09:24