Welcome Guest ( Log In | Register )

> Wombbath - The Weight Of Reality [ep] (2022), Death Metal (D12)
post Mar 8 2022, 04:36:54
Post #1

Правь статус, ####!111
**************
Group: Металариец
Posts: 4,117
Releases: 2584
On Forums: 12 years 2 weeks
Thanks: 47055 time(s)
Russian Federation


(IMG:https://metalarea.org/images/audiocovers/2022_Mar/acov_tid362221_thumb.jpg)

*Artist: Wombbath
*Album: The Weight Of Reality [ep]
*Year: 2022
*Genre: Death Metal
*Country: Sweden (IMG:https://metalarea.org/forum/style_images/flags/Sweden.png)
*Format: mp3@CBR320kbps
*Size: 44MB

Tracklist:
1.Rise of the Rotten 03:39
2.Where we Dwell 04:31
3.Coffin Worship 06:02
4.The Architect 04:54
******************************
Total playing time: 19:06



Technical info
(IMG:https://metalarea.org/images/spectrogram/2022_Mar/896d4c65cfd4c74a8fde9902cfc6feb4.png)
Input File: 01. Rise of the Rotten.mp3
Channels : 2
Sample Rate : 44100
Precision : 16-bit
Duration : 00:03:39.26 = 9669410 samples = 16444.6 CDDA sectors
File Size : 9.28M
Bit Rate : 338k
Sample Encoding: MPEG audio (layer I, II or III)
Comments :
Title=Rise of the Rotten
Artist=Wombbath
Album=The Weight of Reality
Tracknumber=01
Year=2022
Genre=Death Metal



Register


Go to the top of the page
  Insert nick Quick quote
+Quote Post
 
Start new topic
Replies (1 - 9)
post Mar 8 2022, 10:30:10
Post #2

Правь статус, ####!111
**************
Group: Металариец
Posts: 4,117
Releases: 2584
On Forums: 12 years 2 weeks
Thanks: 47055 time(s)
Russian Federation


FLAC - 140MB
Register


Go to the top of the page
  Insert nick Quick quote
+Quote Post
post Mar 8 2022, 15:05:07
Post #3

Семь Литров
*******
Group: Металариец
Posts: 776
Releases: 15
From: Brasil - Sao Paulo
On Forums: 2 years 7 months
Thanks: 678 time(s)
Brazil


More Warmbbath, cool!
Go to the top of the page
  Insert nick Quick quote
+Quote Post
post Mar 8 2022, 18:39:27
Post #4

for me your flesh
**********
Group: Металариец
Posts: 1,466
Releases: 0
On Forums: 5 years 3 months
Thanks: 1256 time(s)
Unknown


Зачастили ребята. Недавно полноформат затянутый выдали, так еще остались не вошедшие в него песни. Сильно их пробило на творчество конвейерного типа.


Thanks:
Go to the top of the page
  Insert nick Quick quote
+Quote Post
post Mar 8 2022, 19:57:03
Post #5

brutalcesar
**************
Group: Металариец
Posts: 18,593
Releases: 76
From: Рязань
On Forums: 13 years 10 months
Thanks: 10856 time(s)
Russian Federation


Кстати да, недавний альбом был суховат, позапрошлый повеселее. А тут ещё и миник в том же духе выкатили. Может и не надо такой продуктивности


Thanks:
Go to the top of the page
  Insert nick Quick quote
+Quote Post
post Mar 14 2022, 07:58:30
Post #6

Austenite
**************
Group: Металариец
Posts: 3,182
Releases: 1
From: Менск
On Forums: 12 years 2 weeks
Thanks: 1432 time(s)
Madagascar


Понравилось, раскачивает ритм секция, оставляю (IMG:style_emoticons/default/metaler.gif)
(а ласт полноформат не зашел)
Go to the top of the page
  Insert nick Quick quote
+Quote Post
post Mar 14 2022, 08:17:23
Post #7

Ледоруб
**************
Group: Металариец
Posts: 31,701
Releases: 0
From: Санкт-Петербург
On Forums: 13 years 2 months
Thanks: 11249 time(s)
Russian Federation


ЦИТАТА(Storky @ 14th March 2022 - 09:58:30) *
а ласт полноформат не зашел

Почему именно "ласт", а не "последний"?
Go to the top of the page
  Insert nick Quick quote
+Quote Post
post Mar 14 2022, 13:05:10
Post #8

Austenite
**************
Group: Металариец
Posts: 3,182
Releases: 1
From: Менск
On Forums: 12 years 2 weeks
Thanks: 1432 time(s)
Madagascar


ЦИТАТА(6666666 @ Mar 14 2022, 10:17:23) *
Почему именно "ласт", а не "последний"?

пнх
Go to the top of the page
  Insert nick Quick quote
+Quote Post
post Mar 14 2022, 14:41:26
Post #9

Ледоруб
**************
Group: Металариец
Posts: 31,701
Releases: 0
From: Санкт-Петербург
On Forums: 13 years 2 months
Thanks: 11249 time(s)
Russian Federation


ЦИТАТА(Storky @ 14th March 2022 - 15:05:10) *
пнх

А почему ты такой грубый? Я задал достаточно логичный вопрос.
Go to the top of the page
  Insert nick Quick quote
+Quote Post
post Mar 21 2022, 12:45:16
Post #10

Правь статус, ####!111
**************
Group: Металариец
Posts: 4,632
Releases: 19
From: Holland
On Forums: 16 years 5 months
Thanks: 1658 time(s)
Netherlands


Правильно говорить ластецкий, так будет по-русски.
А миник не окейный (IMG:style_emoticons/default/smile2.gif) ставлю небольшой крестик на группе
Go to the top of the page
  Insert nick Quick quote
+Quote Post

Reply to this topicStart new topic
1 User(s) are reading this topic (1 Guests and 0 Anonymous Users)
0 Members:

 



- Lo-Fi Version Support form
Copyrights and abuse reports form
Time is now: 3rd December 2022 - 01:24:38