Welcome Guest ( Log In | Register )

Объявления

* gmail.com упорно продолжает считать почту с нас "unsolicited" и отбивает в том числе и письма активации, поэтому просьба использовать альтернативные почтовые ящики.
------------
* gmail.com continues reject all mail from us as "unsolicited" (activation mails too) therefore please use alternate mail servers.
 
Reply to this topicStart new topic
> Airacobra - Midwestern Steel (2022), Blackened Heavy Metal
post Mar 11 2022, 17:19:38
Post #1

Правь статус, ####!111
**************
Group: Металариец
Posts: 7,467
Releases: 6834
From: Одесса
On Forums: 15 years 10 months
Thanks: 79513 time(s)
Ukraine


(IMG:http://metalarea.org/images/audiocovers/2022_Mar/acov_tid362309_thumb.jpg)

*Artist: Airacobra
*Album: Midwestern Steel
*Year: 2022
*Genre: Blackened Heavy Metal
*Country: United States (IMG:http://metalarea.org/forum/style_images/flags/United%20States.png)
*Format: mp3@CBR320kbps
*Size: 82MB

Tracklist:
1. Midwestern Steel 03:01
2. Nailed To The Thieves Cross 03:44
3. Airacobra 03:05
4. You Belong To The Earth 03:53
5. Master Of The Blade 04:49
6. Treacherous Waters Of The Soul Divide 03:32
7. Wrath Of The Wraith 04:28
8. Wolves Of Sabbat 03:22
9. Put Out The Eastern Pyres 04:06
******************************
Total playing time: 34:00



Extended info
Line - up:

TJ Walsh - Guitars (lead), Vocals (backing)
Dusty Raymer - Vocals (ex-Thyateira)
Zakk Burke - Drums
Nick Tuggle - Bass (ex-Blood of Heroes)


Technical info
(IMG:http://metalarea.org/images/spectrogram/2022_Mar/ed61a26466685e07ca277ed07d4b7ecf.png)
Input File: 02 - Nailed to the Thieves Cross.mp3
Channels : 2
Sample Rate : 44100
Precision : 16-bit
Duration : 00:03:44.00 = 9878400 samples = 16800 CDDA sectors
File Size : 8.98M
Bit Rate : 321k
Sample Encoding: MPEG audio (layer I, II or III)
Comments :
Title=Nailed to the Thieves Cross
Artist=Airacobra
Album=Midwestern Steel
Tracknumber=2
Year=2022-03-11
Genre=Blackened Heavy Metal



Register


Go to the top of the page
  Insert nick Quick quote
+Quote Post

Reply to this topicStart new topic
1 User(s) are reading this topic (1 Guests and 0 Anonymous Users)
0 Members:

 



- Lo-Fi Version Support form
Copyrights and abuse reports form
Time is now: 23rd April 2024 - 16:27:02