Welcome Guest ( Log In | Register )

Объявления

* gmail.com упорно продолжает считать почту с нас "unsolicited" и отбивает в том числе и письма активации, поэтому просьба использовать альтернативные почтовые ящики.
------------
* gmail.com continues reject all mail from us as "unsolicited" (activation mails too) therefore please use alternate mail servers.
> Cloven Hoof - Time Assassin (2022), Heavy/Power Metal (D11)
post Mar 15 2022, 18:54:41
Post #1

Правь статус, ####!111
**************
Group: Металариец
Posts: 7,467
Releases: 6834
From: Одесса
On Forums: 15 years 10 months
Thanks: 79512 time(s)
Ukraine


(IMG:http://metalarea.org/images/audiocovers/2022_Mar/acov_tid362390_thumb.jpg)

*Artist: Cloven Hoof
*Album: Time Assassin
*Year: 2022
*Genre: Heavy/Power Metal
*Country: United Kingdom (IMG:http://metalarea.org/forum/style_images/flags/United%20Kingdom.png)
*Format: mp3@CBR320kbps
*Size: 97MB

Tracklist:
1. Guardians of the Universe 04:33
2. Liquidator 03:19
3. Lords of Death 04:23
4. After Forever 04:06
5. Time Assassin 04:41
6. Beltaine Fire 05:16
7. Highway Man 05:09
8. Tokyo Knights 04:35
9. Carnival of Lost Souls 05:24
******************************
Total playing time: 41:26

(IMG:http://metalarea.org/images/youtube.png)

Extended info
Line - up:

Lee Payne - Bass, Vocals (backing) (East of Lyra, ex-Joseph Whelan)
Chris Coss - Guitars (rhythm), Vocals (backing) (ex-Joseph Whelan)
George Call - Vocals (lead) (Aska, Banshee, Violent Storm, ex-Warrion, ex-Emerald, ex-Omen, ex-Leejon, ex-Virgin, ex-Warlock)
Mark Bristow - Drums (ex-Excalibur, East of Lyra)
Luke Hatton - Guitars (lead) (Awake by Design, Luke Hatton, Resonance)


Technical info
(IMG:http://metalarea.org/images/spectrogram/2022_Mar/5f8807bf78fcbd6f3327afc869fc5748.png)
Input File: 06. Beltaine Fire.mp3
Channels : 2
Sample Rate : 44100
Precision : 16-bit
Duration : 00:05:16.52 = 13958532 samples = 23739 CDDA sectors
File Size : 12.7M
Bit Rate : 320k
Sample Encoding: MPEG audio (layer I, II or III)
Comments :
Title=Beltaine Fire
Artist=Cloven Hoof
Album=Time Assassin
Tracknumber=6
Year=2022
Genre=Heavy | Power Metal



Register


Go to the top of the page
  Insert nick Quick quote
+Quote Post
 
Start new topic
Replies (1 - 2)
post Jul 20 2022, 06:57:37
Post #2

Три Литра
***
Group: Завсегдатай
Posts: 223
Releases: 0
From: China
On Forums: 14 years 2 months
Thanks: 63 time(s)
China


Re-Mirror, please (IMG:style_emoticons/default/pray.gif) (IMG:style_emoticons/default/pray.gif) (IMG:style_emoticons/default/pray.gif)
Go to the top of the page
  Insert nick Quick quote
+Quote Post
post Jul 20 2022, 07:26:59
Post #3

Девять Литров
*********
Group: Металариец
Posts: 924
Releases: 0
On Forums: 6 years 8 months
Thanks: 1468 time(s)
Mexico


QUOTE(WX419 @ Jul 20 2022, 06:57:37) *

Register


Go to the top of the page
  Insert nick Quick quote
+Quote Post

Reply to this topicStart new topic
1 User(s) are reading this topic (1 Guests and 0 Anonymous Users)
0 Members:

 



- Lo-Fi Version Support form
Copyrights and abuse reports form
Time is now: 23rd April 2024 - 14:59:24