Welcome Guest ( Log In | Register )

> Hyperia - Silhouettes Of Horror (2022), Melodic Thrash Metal
post Mar 17 2022, 13:45:41
Post #1

Serial Uploader
Group Icon
Group: V.I.P
Posts: 38,499
Releases: 36646
From: Lithuania
On Forums: 13 years 11 months
Thanks: 453709 time(s)
Lithuania


(IMG:https://metalarea.org/images/audiocovers/2022_Mar/acov_tid362437_thumb.jpg)

*Artist: Hyperia
*Album: Silhouettes Of Horror
*Year: 2022
*Genre: Melodic Thrash Metal
*Country: Canada (IMG:https://metalarea.org/forum/style_images/flags/Canada.png)
*Format: mp3@CBR320kbps
*Size: 118MB

Tracklist:
1. Hypnagogia 04:18
2. Intoxication Therapy 04:38
3. Experiment 77 04:29
4. Severed 04:20
5. Prisoner Of The Mind 04:18
6. Terror Serum 04:51
7. Whitecoat 03:31
8. Silhouettes Of Horror 03:55
9. Operation Midnight 04:22
10. Pleonexia 06:59
11. Gimme Gimme Gimme (ABBA Cover) 04:29
******************************
Total playing time: 50:10


Preview 2

(IMG:https://metalarea.org/images/youtube.png)

Technical info
(IMG:https://metalarea.org/images/spectrogram/2022_Mar/06638f05fd76981ad67b6a9315d8f0c4.png)
Input File: 05. Prisoner of the Mind.mp3
Channels : 2
Sample Rate : 44100
Precision : 16-bit
Duration : 00:04:18.00 = 11377800 samples = 19350 CDDA sectors
File Size : 10.5M
Bit Rate : 325k
Sample Encoding: MPEG audio (layer I, II or III)
Comments :
Title=Prisoner of the Mind
Artist=Hyperia
Album=Silhouettes of Horror
Tracknumber=5
Year=2022
Genre=Melodic Metal
Discnumber=1



Register


Go to the top of the page
  Insert nick Quick quote
+Quote Post
 
Start new topic
Replies (1 - 5)
post Mar 20 2022, 17:09:45
Post #2

Ёлд ХеллоВяйне
Group Icon
Group: V.I.P
Posts: 33,220
Releases: 144
From: Питер
On Forums: 15 years 7 months
Thanks: 20891 time(s)
Russian Federation


Кавер прикольный, в стиле бодомов. Собственный материал группы не понравился.
Go to the top of the page
  Insert nick Quick quote
+Quote Post
post Mar 23 2022, 10:27:56
Post #3

добрый мизантроп
**************
Group: Металариец
Posts: 2,961
Releases: 1
From: Менск
On Forums: 11 years 6 months
Thanks: 1315 time(s)
Madagascar


По беглому прогону классный оригинальный первосортный мелотрэш испорченый второсортным вокалом
Go to the top of the page
  Insert nick Quick quote
+Quote Post
post Mar 23 2022, 10:50:45
Post #4

добрый мизантроп
**************
Group: Металариец
Posts: 2,961
Releases: 1
From: Менск
On Forums: 11 years 6 months
Thanks: 1315 time(s)
Madagascar


Вообщем фоном под работу заходит крайне хорошо, на вокал не обращаю внимания/привык, оставляю (нет)
Go to the top of the page
  Insert nick Quick quote
+Quote Post
post Mar 28 2022, 09:01:16
Post #5

Шесть Литров
******
Group: Металариец
Posts: 660
Releases: 0
From: Нижний Новгород
On Forums: 12 years 6 months
Thanks: 161 time(s)
Russian Federation


ЦИТАТА(Storky @ Mar 23 2022, 12:27:56) *
По беглому прогону классный оригинальный первосортный мелотрэш испорченый второсортным вокалом
Для первосортности, наверное, должно быть что-то своё в альбоме. А тут же просто классно сыграно в стиле жанра.
Go to the top of the page
  Insert nick Quick quote
+Quote Post
post May 14 2022, 04:44:03
Post #6

i listen to black metal
**************
Group: Металариец
Posts: 3,334
Releases: 144
From: Москва
On Forums: 15 years 5 months
Thanks: 2443 time(s)
Russian Federation


всё на местах своих и такой женский вокал в трэше быть обязан!!!!!
Go to the top of the page
  Insert nick Quick quote
+Quote Post

Reply to this topicStart new topic
2 User(s) are reading this topic (2 Guests and 0 Anonymous Users)
0 Members:

 



- Lo-Fi Version Support form
Copyrights and abuse reports form
Time is now: 29th May 2022 - 12:50:53