Welcome Guest ( Log In | Register )

Объявления

* gmail.com упорно продолжает считать почту с нас "unsolicited" и отбивает в том числе и письма активации, поэтому просьба использовать альтернативные почтовые ящики.
------------
* gmail.com continues reject all mail from us as "unsolicited" (activation mails too) therefore please use alternate mail servers.
> Sumerian Tombs - Sumerian Tombs (2022), Black Metal
post Mar 22 2022, 19:48:17
Post #1

Правь статус, ####!111
**************
Group: Металариец
Posts: 7,619
Releases: 6969
From: Одесса
On Forums: 16 years 2 weeks
Thanks: 81296 time(s)
Ukraine


(IMG:http://metalarea.org/images/audiocovers/2022_Mar/acov_tid362606_thumb.jpg)

*Artist: Sumerian Tombs
*Album: Sumerian Tombs
*Year: 2022
*Genre: Black Metal
*Country: Germany (IMG:http://metalarea.org/forum/style_images/flags/Germany.png)
*Format: mp3@CBR320kbps
*Size: 100MB

Tracklist:
1. Intro instrumental
2. Bloodspells of the Ancient
3. Light of Death
4. Tomb Lurker
5. Altars of the Past
6. The Key. Blood Meditation
7. Envoke the Old
8. Vampyric Dominance
******************************
Total playing time: 41:59




Extended info
Line - up:
M - Vocals
C - Bass
D - Drums
M -Guitars
K - Guitars, Vocals (backing), Keyboards (Beltez, Damage Source, ex-Sadism Unbound, Fratricide (Deu))

Guest/Session:
Zingultus - Guest Vocals (Track 05) (Endstille, Graupel, Graven, Morast, Desecration, ex-Nagelfar)


Technical info
(IMG:http://metalarea.org/images/spectrogram/2022_Mar/8477cc7948095fed7a86992418178894.png)
Input File: 05-sumerian_tombs-altars_of_the_past-0419bcb2.mp3
Channels : 2
Sample Rate : 44100
Precision : 16-bit
Duration : 00:06:58.74 = 18466566 samples = 31405.7 CDDA sectors
File Size : 16.8M
Bit Rate : 320k
Sample Encoding: MPEG audio (layer I, II or III)
Comments :
Title=Altars of the Past
Artist=Sumerian Tombs
Album=Sumerian Tombs
Tracknumber=5
Year=2022
Genre=138



Register


Go to the top of the page
  Insert nick Quick quote
+Quote Post
 
Start new topic
Replies (1 - 8)
post Mar 23 2022, 11:37:04
Post #2

While Waiting the Worms
***********
Group: Металариец
Posts: 1,619
Releases: 0
On Forums: 10 years 5 months
Thanks: 2552 time(s)
Unknown


Не дослушал.
Ну блек... С ориентальными мотивами и жиденькой претензией на таинственную атмосферу.
По сути - пустышка. В лучшем случае - фоновая музыка для тех, кто не может жить без звукового фона.
Go to the top of the page
  Insert nick Quick quote
+Quote Post
post Mar 23 2022, 15:18:39
Post #3

Common dweller of hell
**************
Group: Металариец
Posts: 5,440
Releases: 12
From: Dnipro
On Forums: 15 years 11 months
Thanks: 2206 time(s)
Ukraine


Альбом на 4+
Go to the top of the page
  Insert nick Quick quote
+Quote Post
post Mar 24 2022, 15:35:23
Post #4

Austenite
**************
Group: Металариец
Posts: 3,193
Releases: 1
From: Менск
On Forums: 13 years 7 months
Thanks: 1644 time(s)
Madagascar


ЦИТАТА(Sangreal @ Mar 23 2022, 13:37:04) *
По сути - пустышка.

Да и лирика - "сочинение на тему"
Go to the top of the page
  Insert nick Quick quote
+Quote Post
post Apr 14 2022, 17:44:54
Post #5
BAN
Banned till
Jan 1 273792723, 10:12:34



CD Rip?
Go to the top of the page
  Insert nick Quick quote
+Quote Post
post Oct 28 2022, 21:21:42
Post #6

Group: Дух
Posts: 1
Releases: 0
On Forums: 1 year 7 months
Thanks: 0 time(s)
Greece


Any chance for re up?
Go to the top of the page
  Insert nick Quick quote
+Quote Post
post Nov 3 2022, 19:16:15
Post #7

Правь статус, ####!111
**************
Group: Металариец
Posts: 8,827
Releases: 197
From: HELL
On Forums: 17 years 8 months
Thanks: 30711 time(s)
Uruguay


new link
Register
Go to the top of the page
  Insert nick Quick quote
+Quote Post
post Jan 13 2023, 04:39:33
Post #8

Мегаманьяк
***********
Group: Металариец
Posts: 1,839
Releases: 10
On Forums: 15 years 5 months
Thanks: 185 time(s)
Germany


Please, re-upload.
Go to the top of the page
  Insert nick Quick quote
+Quote Post
post Jan 13 2023, 09:33:39
Post #9

Маньяк
**********
Group: Металариец
Posts: 1,131
Releases: 0
From: Warszawa
On Forums: 9 years 6 months
Thanks: 606 time(s)
Poland


320 kbps
Register


Thanks:
Go to the top of the page
  Insert nick Quick quote
+Quote Post

Reply to this topicStart new topic
2 User(s) are reading this topic (2 Guests and 0 Anonymous Users)
0 Members:

 



- Lo-Fi Version Support form
Copyrights and abuse reports form
Time is now: 20th June 2024 - 10:38:38