Welcome Guest ( Log In | Register )

> Michael Romeo - War Of The Worlds//Pt. 2 (2022), Progressive/Neoclassical Metal
post Mar 24 2022, 11:18:52
Post #1

Serial Uploader
Group Icon
Group: V.I.P
Posts: 38,972
Releases: 37108
From: Lithuania
On Forums: 14 years 3 months
Thanks: 463718 time(s)
Lithuania


(IMG:https://metalarea.org/images/audiocovers/2022_Mar/acov_tid362659_thumb.jpg)

*Artist: Michael Romeo
*Album: War Of The Worlds//Pt. 2
*Year: 2022
*Genre: Progressive/Neoclassical Metal
*Country: United States (IMG:https://metalarea.org/forum/style_images/flags/United%20States.png)
*Format: mp3@CBR320kbps
*Size: 154MB

Tracklist:
1. Introduction, Pt. II 02:37
2. Divide & Conquer 04:46
3. Destroyer 05:34
4. Metamorphosis 05:53
5. Mothership 02:23
6. Just Before the Dawn 05:01
7. Hybrids 06:14
8. Hunted 04:32
9. Maschinenmensch 09:03
10. Parasite 04:33
11. Brave New World (Outro) 03:36
******************************
Total playing time: 54:12


(IMG:https://metalarea.org/images/youtube.png)

Technical info
(IMG:https://metalarea.org/images/spectrogram/2022_Mar/df7e7353baeb22490998a11e903f6a26.png)
Input File: 02 - Divide & Conquer.mp3
Channels : 2
Sample Rate : 44100
Precision : 16-bit
Duration : 00:04:46.00 = 12612600 samples = 21450 CDDA sectors
File Size : 11.6M
Bit Rate : 325k
Sample Encoding: MPEG audio (layer I, II or III)
Comments :
Title=Divide & Conquer
Artist=Michael Romeo
Album=War Of The Worlds, Pt. 2 (Bonus Tracks Edition)
Tracknumber=2
Year=2022-03-25
Genre=Pop
Discnumber=1



Register


Go to the top of the page
  Insert nick Quick quote
+Quote Post
 
Start new topic
Replies (1 - 4)
post Mar 24 2022, 15:41:02
Post #2

к приему виски готов
*********
Group: Металариец
Posts: 914
Releases: 3
From: Украина
On Forums: 13 years 7 months
Thanks: 542 time(s)
Ukraine


прошлый был хорош (IMG:style_emoticons/default/20.gif) , заценим 2 часть


Thanks:
(1) Shadowman,
Go to the top of the page
  Insert nick Quick quote
+Quote Post
post Mar 24 2022, 19:17:43
Post #3

Тридцать три года на борту "тяжёлого" крейсера
**************
Group: Металариец
Posts: 2,932
Releases: 0
From: Питер
On Forums: 15 years 3 months
Thanks: 927 time(s)
Russian Federation


да то же самое
но реверансов в сторону Symphony X (а куда ж ещё) вроде как, больше, с первой прослушки, что мне лично не понравилось
прошлый поинтереснее, на первый взгляд
Go to the top of the page
  Insert nick Quick quote
+Quote Post
post Mar 25 2022, 12:07:59
Post #4

к приему виски готов
*********
Group: Металариец
Posts: 914
Releases: 3
From: Украина
On Forums: 13 years 7 months
Thanks: 542 time(s)
Ukraine


слабоват альбом, нет хлесткости и энергии, все как то без задора и изюминки.
Go to the top of the page
  Insert nick Quick quote
+Quote Post
post Apr 28 2022, 18:00:42
Post #5

21st Century Schizoid Man
**************
Group: Металариец
Posts: 7,512
Releases: 113
From: 1984
On Forums: 14 years 4 months
Thanks: 6646 time(s)
Liberia


Альбом малоотличим от творений того же Ромео в рамках "Symphony X". В прошлом разе (2018) такого ощущения было меньше.
Go to the top of the page
  Insert nick Quick quote
+Quote Post

Reply to this topicStart new topic
2 User(s) are reading this topic (2 Guests and 0 Anonymous Users)
0 Members:

 



- Lo-Fi Version Support form
Copyrights and abuse reports form
Time is now: 3rd October 2022 - 08:13:47