Welcome Guest ( Log In | Register )

> Falls Of Rauros - Key To A Vanishing Future (2022), Black/Folk Metal (D)
post Mar 24 2022, 14:05:29
Post #1

Serial Uploader
Group Icon
Group: V.I.P
Posts: 39,534
Releases: 37658
From: Lithuania
On Forums: 14 years 7 months
Thanks: 473664 time(s)
Lithuania


(IMG:https://metalarea.org/images/audiocovers/2022_Mar/acov_tid362681_thumb.jpg)

*Artist: Falls Of Rauros
*Album: Key To A Vanishing Future
*Year: 2022
*Genre: Black/Folk Metal
*Country: United States (IMG:https://metalarea.org/forum/style_images/flags/United%20States.png)
*Format: mp3@CBR320kbps
*Size: 101MB

Tracklist:
1. Clarity 07:26
2. Desert of Heart 07:25
3. Survival Poem 06:45
4. Known World Narrows 07:48
5. Daggers in Floodlight 07:59
6. Poverty Hymn 06:35
******************************
Total playing time: 43:58


Preview 2

(IMG:https://metalarea.org/images/youtube.png)

Technical info
(IMG:https://metalarea.org/images/spectrogram/2022_Mar/6dc5006ae859e6b602e6c5a2ea680dff.png)
Input File: 02 - Desert of Heart.mp3
Channels : 2
Sample Rate : 44100
Precision : 16-bit
Duration : 00:07:25.00 = 19624500 samples = 33375 CDDA sectors
File Size : 18.0M
Bit Rate : 324k
Sample Encoding: MPEG audio (layer I, II or III)
Comments :
Title=Desert of Heart
Artist=Falls of Rauros
Album=Key to a Vanishing Future
Tracknumber=2
Year=2022-03-25
Genre=Metal
Discnumber=1



Register


Go to the top of the page
  Insert nick Quick quote
+Quote Post
 
Start new topic
Replies (1 - 6)
post Mar 25 2022, 16:44:17
Post #2

Пять Литров
*****
Group: Металариец
Posts: 456
Releases: 0
On Forums: 4 years 7 months
Thanks: 246 time(s)
Mexico


I love USBM. Amazing black/folk metal (IMG:style_emoticons/default/9.gif)
Go to the top of the page
  Insert nick Quick quote
+Quote Post
post Mar 25 2022, 16:54:11
Post #3

Правь статус, ####!111
**************
Group: Металариец
Posts: 52,634
Releases: 967
On Forums: 13 years 7 months
Thanks: 49408 time(s)
Russian Federation


Что скажет Daale?
Go to the top of the page
  Insert nick Quick quote
+Quote Post
post Mar 31 2022, 08:39:01
Post #4

Правь статус, ####!111
**************
Group: Металариец
Posts: 4,189
Releases: 1
From: Рейх
On Forums: 16 years 5 months
Thanks: 1022 time(s)
Ukraine


ЦИТАТА(Angeldemon617 @ Mar 25 2022, 20:44:17) *
black/folk metal (IMG:style_emoticons/default/9.gif)

Где тут фолк? Просто атмосферик
Go to the top of the page
  Insert nick Quick quote
+Quote Post
post Apr 2 2022, 09:44:21
Post #5

Литр
*
Group: Подсевший
Posts: 62
Releases: 17
On Forums: 13 years 6 months
Thanks: 334 time(s)
Ukraine


Приятный мелодичный атмоблэк. По сравнению с ранними альбомами мелодичнее стали.
Go to the top of the page
  Insert nick Quick quote
+Quote Post
post Dec 19 2022, 12:01:50
Post #6

Ёлд ХеллоВяйне
Group Icon
Group: V.I.P
Posts: 34,015
Releases: 144
From: Питер
On Forums: 16 years 3 months
Thanks: 21358 time(s)
Russian Federation


Гитарная работа вызывает неподдельное уважение — уж и не знаю, кого из двоих шестиструнных лесорубов хвалить за этакое действо, но ему (а то и им) задуматься бы об инструментальном сольнике. Основной же материал в меру приятен, в меру стандартен.
Go to the top of the page
  Insert nick Quick quote
+Quote Post
post Jan 25 2023, 23:42:47
Post #7

Зануда
***
Group: Завсегдатай
Posts: 243
Releases: 0
From: Москва
On Forums: 3 years 1 month
Thanks: 4 time(s)
Russian Federation


Обновите ссылки, пожалуйста.
Go to the top of the page
  Insert nick Quick quote
+Quote Post

Reply to this topicStart new topic
1 User(s) are reading this topic (1 Guests and 0 Anonymous Users)
0 Members:

 



- Lo-Fi Version Support form
Copyrights and abuse reports form
Time is now: 28th January 2023 - 19:55:54