Welcome Guest ( Log In | Register )

> Strymer - Cold Winds Of Azrael (2022), Black Metal
post Mar 25 2022, 16:46:28
Post #1

Serial Uploader
Group Icon
Group: V.I.P
Posts: 38,609
Releases: 36751
From: Lithuania
On Forums: 14 years 4 weeks
Thanks: 456112 time(s)
Lithuania


(IMG:https://metalarea.org/images/audiocovers/2022_Mar/acov_tid362728_thumb.jpg)

*Artist: Strymer
*Album: Cold Winds Of Azrael
*Year: 2022
*Genre: Black Metal
*Country: Denmark (IMG:https://metalarea.org/forum/style_images/flags/Denmark.png)
*Format: mp3@CBR320kbps
*Size: 75MB

Tracklist:
01. Black Water 06:15
02. Øks 06:30
03. Cold Winds Of Azrael 06:11
04. Mountain Steilhang 07:43
05. En Siste Aften 04:12
06. Under The Dark Depths 02:11
******************************
Total playing time: 33:02

Technical info
(IMG:https://metalarea.org/images/spectrogram/2022_Mar/52ebe696adb10089fd688e7bb4d405c0.png)
Input File: 02. Øks.mp3
Channels : 2
Sample Rate : 44100
Precision : 16-bit
Duration : 00:06:29.64 = 17182992 samples = 29222.8 CDDA sectors
File Size : 15.6M
Bit Rate : 321k
Sample Encoding: MPEG audio (layer I, II or III)
Comments :
Title=Øks
Artist=Strymer
Album=Cold Winds Of Azrael
Tracknumber=1
Year=2022



Register


Go to the top of the page
  Insert nick Quick quote
+Quote Post
 
Start new topic
Replies (1 - 4)
post Mar 25 2022, 19:30:14
Post #2

Common dweller of hell
**************
Group: Металариец
Posts: 4,297
Releases: 12
From: Dnipro
On Forums: 13 years 11 months
Thanks: 1697 time(s)
Ukraine




Thanks:
Go to the top of the page
  Insert nick Quick quote
+Quote Post
post Mar 25 2022, 19:38:51
Post #3

MDM-Thrash Metal
**************
Group: Металариец
Posts: 11,207
Releases: 1527
From: Одесса
On Forums: 14 years 10 months
Thanks: 36273 time(s)
Ukraine


https://www.youtube.com/watch?v=ei9HCuwvS-8
https://www.youtube.com/watch?v=OYYEHfLabUo
https://www.youtube.com/watch?v=zMraewD0ius
https://www.youtube.com/watch?v=qAX3SplPPSQ


Thanks:
(2) Storky, WOLAND,
Go to the top of the page
  Insert nick Quick quote
+Quote Post
post Mar 26 2022, 15:44:01
Post #4

De Mysteriis Dom Sathanas
**************
Group: Металариец
Posts: 4,457
Releases: 64
From: Doom
On Forums: 13 years 11 months
Thanks: 3851 time(s)
Russian Federation


Забавное название группы (IMG:style_emoticons/default/25.gif)
Go to the top of the page
  Insert nick Quick quote
+Quote Post
post Mar 27 2022, 14:12:09
Post #5

Четыре Литра
****
Group: Металариец
Posts: 328
Releases: 0
From: TheМля
On Forums: 15 years 9 months
Thanks: 104 time(s)
Belarus


Музыка не очень забавная.


Thanks:
(1) Storky,
Go to the top of the page
  Insert nick Quick quote
+Quote Post

Reply to this topicStart new topic
2 User(s) are reading this topic (2 Guests and 0 Anonymous Users)
0 Members:

 



- Lo-Fi Version Support form
Copyrights and abuse reports form
Time is now: 7th July 2022 - 11:41:52