Welcome Guest ( Log In | Register )

> Line Of Durin - Ever Homeward (2022), Epic/Atmospheric Black Metal
post Mar 26 2022, 15:28:22
Post #1

Правь статус, ####!111
**************
Group: Металариец
Posts: 30,377
Releases: 22365
From: Г.Харьков
On Forums: 10 years 4 months
Thanks: 467176 time(s)
Unknown


(IMG:https://metalarea.org/images/audiocovers/2022_Mar/acov_tid362754_thumb.jpg)

*Artist: Line Of Durin
*Album: Ever Homeward
*Year: 2022
*Genre: Epic/Atmospheric Black Metal
*Country: United States (IMG:https://metalarea.org/forum/style_images/flags/United%20States.png)
*Format: mp3@CBR320kbps
*Size: 102MB

Tracklist:
1. Mahal 02:17
2. Durin the Deathless 05:25
3. First Born's Caprice 00:49 instrumental
4. Red Luin 06:51
5. Oakenshield 04:45
6. Smaug the Terrible 03:40
7. Balin's Fated March 04:27
8. Ghostly Halls of Stone/Balin's Tomb 07:22 instrumental
9. Bane's End 08:49
******************************
Total playing time: 44:25




Extended info
Aöl Bass, Keyboards, Clarinet (bass), Flute, Recorder, Whistles
Zirak Guitars, Vocals (backing)
Telchar Vocals, Guitars, Percussion, Keyboards


Technical info
(IMG:https://metalarea.org/images/spectrogram/2022_Mar/150eec71986b2a18b919fe3a544a03aa.png)
Input File: 04 - Ered Luin.mp3
Channels : 2
Sample Rate : 44100
Precision : 16-bit
Duration : 00:06:51.09 = 18128849 samples = 30831.4 CDDA sectors
File Size : 16.5M
Bit Rate : 321k
Sample Encoding: MPEG audio (layer I, II or III)
Comments :
Title=Ered Luin
Artist=Line of Durin
Album=Ever Homeward
Tracknumber=4/9
Year=2022



Register


Go to the top of the page
  Insert nick Quick quote
+Quote Post
 
Start new topic
Replies (1 - 5)
post Mar 26 2022, 17:27:06
Post #2

Четыре Литра
****
Group: Металариец
Posts: 388
Releases: 0
On Forums: 4 years 3 months
Thanks: 182 time(s)
Mexico


Amazing epic/atmospheric black metal from United States. Good references to The Hobbit


Thanks:
Go to the top of the page
  Insert nick Quick quote
+Quote Post
post Mar 27 2022, 13:36:20
Post #3

Литр
*
Group: Подсевший
Posts: 84
Releases: 2
On Forums: 9 years 10 months
Thanks: 30 time(s)
Norfolk Island


Не дурно однако...
Go to the top of the page
  Insert nick Quick quote
+Quote Post
post Mar 28 2022, 18:51:00
Post #4

Group: Подсевший
Posts: 12
Releases: 0
On Forums: 13 years 3 months
Thanks: 1 time(s)
Russian Federation


Отличный альбом!
Go to the top of the page
  Insert nick Quick quote
+Quote Post
post Mar 28 2022, 19:51:31
Post #5

ЗаDOOMчивый
***********
Group: Металариец
Posts: 1,882
Releases: 27
From: Cradlовская обл., г. Нижний Gorgoroth, р-н Doom-о-Deathово
On Forums: 13 years 10 months
Thanks: 1333 time(s)
Russian Federation


Прям такие отзывы... Послушать что ли?..
Go to the top of the page
  Insert nick Quick quote
+Quote Post
post May 25 2022, 05:27:16
Post #6

i listen to black metal
**************
Group: Металариец
Posts: 3,411
Releases: 144
From: Москва
On Forums: 15 years 9 months
Thanks: 2454 time(s)
Russian Federation


epc dungeon synth metal
блэка здесь нет
Go to the top of the page
  Insert nick Quick quote
+Quote Post

Reply to this topicStart new topic
2 User(s) are reading this topic (2 Guests and 0 Anonymous Users)
0 Members:

 



- Lo-Fi Version Support form
Copyrights and abuse reports form
Time is now: 3rd October 2022 - 09:45:39